Начать новую тему Ответить на тему
Статистика раздачи
Размер: 194.74 МБ | Добавлен: 12 май 2019, 20:16 | Скачали: 6
Сидеров: 10  [0 байт/сек]    Личеров: 3  [0 байт/сек]
Пред. тема | След. тема 

Автор
Сообщение

СообщениеДобавлено: 12 май 2019, 20:16 

Ответить с цитатой 

Cynthia Tauro - Moments
Жанр: Vocal Jazz
Носитель: CD
Страна-производитель диска (релиза): Канада
Год издания: 2019
Издатель (лейбл): Self-Released
Аудиокодек: FLAC (*.flac)
Тип рипа: tracks+.cue
Продолжительность: 00:33:44
Источник: JackDAW
Наличие сканов в содержимом раздачи: нет
Треклист:
01. Dancin' on My Own (3:36)
02. Someday My Prince Will Come (3:30)
03. Cara Valente (4:13)
04. Like That (4:40)
05. Fly Me to the Moon (5:27)
06. Why (4:49)
07. Far Away (4:21)
08. One Note Samba (3:08)
Код:
Exact Audio Copy V1.3 from 2. September 2016
EAC extraction logfile from 22. April 2019, 4:26
Cynthia Tauro / Moments
Used drive  : HL-DT-STDVDRAM GH24NSC0   Adapter: 1  ID: 1
Read mode               : Secure
Utilize accurate stream : Yes
Defeat audio cache      : Yes
Make use of C2 pointers : No
Read offset correction                      : 6
Overread into Lead-In and Lead-Out          : No
Fill up missing offset samples with silence : Yes
Delete leading and trailing silent blocks   : No
Null samples used in CRC calculations       : Yes
Used interface                              : Native Win32 interface for Win NT & 2000
Gap handling                                : Appended to previous track
Used output format              : User Defined Encoder
Selected bitrate                : 768 kBit/s
Quality                         : High
Add ID3 tag                     : No
Command line compressor         : Z:\home\monster\.wine\drive_c\Program Files (x86)\Exact Audio Copy\FLAC\FLAC.EXE
Additional command line options : -8 -e -p -V -T "ARTIST=%artist%" -T "TITLE=%title%" -T "ALBUM=%albumtitle%" -T "DATE=%year%" -T "TRACKNUMBER=%tracknr%" -T "GENRE=%genre%" -T "PERFORMER=%albuminterpret%" -T "COMPOSER=%composer%" %haslyrics%--tag-from-file=LYRICS="%lyricsfile%"%haslyrics% -T "ALBUMARTIST=%albumartist%" -T "DISCNUMBER=%cdnumber%" -T "TOTALDISCS=%totalcds%" -T "TOTALTRACKS=%numtracks%" -T "COMMENT=%comment%" %source% -o %dest%
TOC of the extracted CD
     Track |   Start  |  Length  | Start sector | End sector
    ---------------------------------------------------------
        1  |  0:00.00 |  3:35.59 |         0    |    16183
        2  |  3:35.59 |  3:30.27 |     16184    |    31960
        3  |  7:06.11 |  4:13.11 |     31961    |    50946
        4  | 11:19.22 |  4:40.06 |     50947    |    71952
        5  | 15:59.28 |  5:26.61 |     71953    |    96463
        6  | 21:26.14 |  4:49.37 |     96464    |   118175
        7  | 26:15.51 |  4:21.15 |    118176    |   137765
        8  | 30:36.66 |  3:07.58 |    137766    |   151848
Track  1
     Filename C:\EACRips\Cynthia Tauro - Moments (2019) [CD-FLAC]\01. Dancin' On My Own.wav
     Pre-gap length  0:00:02.00
     Peak level 94.3 %
     Extraction speed 0.8 X
     Track quality 99.9 %
     Test CRC 60DBBE1F
     Copy CRC 60DBBE1F
     Track not present in AccurateRip database
     Copy OK
Track  2
     Filename C:\EACRips\Cynthia Tauro - Moments (2019) [CD-FLAC]\02. Someday My Prince Will Come.wav
     Peak level 94.3 %
     Extraction speed 1.1 X
     Track quality 100.0 %
     Test CRC A5E72221
     Copy CRC A5E72221
     Track not present in AccurateRip database
     Copy OK
Track  3
     Filename C:\EACRips\Cynthia Tauro - Moments (2019) [CD-FLAC]\03. Cara Valente.wav
     Peak level 86.7 %
     Extraction speed 1.2 X
     Track quality 100.0 %
     Test CRC 85A9074C
     Copy CRC 85A9074C
     Track not present in AccurateRip database
     Copy OK
Track  4
     Filename C:\EACRips\Cynthia Tauro - Moments (2019) [CD-FLAC]\04. Like That.wav
     Peak level 94.3 %
     Extraction speed 1.3 X
     Track quality 100.0 %
     Test CRC 6AF52E03
     Copy CRC 6AF52E03
     Track not present in AccurateRip database
     Copy OK
Track  5
     Filename C:\EACRips\Cynthia Tauro - Moments (2019) [CD-FLAC]\05. Fly Me To The Moon.wav
     Peak level 94.3 %
     Extraction speed 1.5 X
     Track quality 100.0 %
     Test CRC 12A08659
     Copy CRC 12A08659
     Track not present in AccurateRip database
     Copy OK
Track  6
     Filename C:\EACRips\Cynthia Tauro - Moments (2019) [CD-FLAC]\06. Why.wav
     Peak level 94.3 %
     Extraction speed 1.4 X
     Track quality 99.9 %
     Test CRC BD9C2EFD
     Copy CRC BD9C2EFD
     Track not present in AccurateRip database
     Copy OK
Track  7
     Filename C:\EACRips\Cynthia Tauro - Moments (2019) [CD-FLAC]\07. Far Away.wav
     Peak level 94.3 %
     Extraction speed 1.6 X
     Track quality 100.0 %
     Test CRC C6CBD5AD
     Copy CRC C6CBD5AD
     Track not present in AccurateRip database
     Copy OK
Track  8
     Filename C:\EACRips\Cynthia Tauro - Moments (2019) [CD-FLAC]\08. One Note Samba.wav
     Peak level 94.3 %
     Extraction speed 1.6 X
     Track quality 100.0 %
     Test CRC C74BDA76
     Copy CRC C74BDA76
     Track not present in AccurateRip database
     Copy OK
None of the tracks are present in the AccurateRip database
No errors occurred
End of status report
==== Log checksum 2DBD5D34B9B37D01D5E2AFBF3E32FD99BDC03BB4DF5757A51C3F9AD7A6645A65 ====
Код:
REM GENRE Jazz
REM DATE 2019
REM DISCID 7407E808
REM COMMENT "ExactAudioCopy v1.3"
PERFORMER "Cynthia Tauro"
TITLE "Moments"
FILE "01 - Dancin' on My Own.wav" WAVE
  TRACK 01 AUDIO
    TITLE "Dancin' on My Own"
    PERFORMER "Cynthia Tauro"
    ISRC CAJDI1800001
    INDEX 01 00:00:00
FILE "02 - Someday My Prince Will Come.wav" WAVE
  TRACK 02 AUDIO
    TITLE "Someday My Prince Will Come"
    PERFORMER "Cynthia Tauro"
    ISRC CAJDI1800002
    INDEX 01 00:00:00
FILE "03 - Cara Valente.wav" WAVE
  TRACK 03 AUDIO
    TITLE "Cara Valente"
    PERFORMER "Cynthia Tauro"
    ISRC CAJDI1800003
    INDEX 01 00:00:00
FILE "04 - Like That.wav" WAVE
  TRACK 04 AUDIO
    TITLE "Like That"
    PERFORMER "Cynthia Tauro"
    ISRC CAJDI1800004
    INDEX 01 00:00:00
FILE "05 - Fly Me to the Moon.wav" WAVE
  TRACK 05 AUDIO
    TITLE "Fly Me to the Moon"
    PERFORMER "Cynthia Tauro"
    ISRC CAJDI1800005
    INDEX 01 00:00:00
FILE "06 - Why.wav" WAVE
  TRACK 06 AUDIO
    TITLE "Why"
    PERFORMER "Cynthia Tauro"
    ISRC CAJDI1800006
    INDEX 01 00:00:00
FILE "07 - Far Away.wav" WAVE
  TRACK 07 AUDIO
    TITLE "Far Away"
    PERFORMER "Cynthia Tauro"
    ISRC CAJDI1800007
    INDEX 01 00:00:00
FILE "08 - One Note Samba.wav" WAVE
  TRACK 08 AUDIO
    TITLE "One Note Samba"
    PERFORMER "Cynthia Tauro"
    ISRC CAJDI1800008
    INDEX 01 00:00:00
There can be no doubt that emerging jazz pianist and vocalist Cynthia Tauro is a stunning, talented breath of fresh air. Her debut CD is a clever juxtaposition of interesting standards, and Tauro’s original, irresistible compositions. With a musical pedigree that goes back generations, Tauro has a wealth of musical technique, as well as a recognizable and appealing vocal sound – alternatingly soft as velvet and sharp as a razor. On her debut recording, Tauro has put together a talented ensemble, led by eclectic, brilliant and intuitive producer/composer George Koller on bass and A-list jazz players Ted Quinlan on guitar, Davide DiRenzo on drums, Perry White on tenor saxophone and Colleen Allen on soprano sax, clarinet and flute.
The CD kicks off with Tauro’s original tune, Dancin’ On My Own. Interesting chord changes, superb musicianship and a no-nonsense lyric make this track a standout (including Perry White’s Hank Mobley-esque solo). Another excellent choice by Tauro is her version of 1937’s Someday My Prince Will Come. Tauro’s pitch-pure soprano sails over the lyric, imbuing it with a contemporary emotional edge, while her piano work is both substantial and swinging.
Without question, Cara Valente is sung with skill and precision in luscious Portuguese. Tauro’s deep, innate rhythmic feel, as well as her vocal timbre and fluidity are nothing short of breathtaking – bringing to mind the late Elis Regina. The CD’s bilingual closer, One Note Samba, is a triumph. Despite her jazz ingénue status, Tauro is already a fully realized pianist, songwriter and vocalist, and it will be fascinating to see what’s next for this talented artist!
Правила, инструкции, FAQ!!!
Торрент  Добавлен [12 май 2019, 20:16] Скачать торрент Магнет ссылка
Скачать торрент
[ Размер 16.3 КБ / Просмотров 23 ]

Статус
Проверен 
 
Размер  194.74 МБ
Приватный: Нет (DHT включён)
.torrent скачан  6
Как залить торрент? | Как скачать Torrent? | Ошибка в торренте? Качайте магнет  


     Отправить личное сообщение
   
Страница 1 из 1
Показать сообщения за:  Поле сортировки  
Начать новую тему Ответить на тему


Сейчас этот форум просматривают: нет зарегистрированных пользователей и гости: 0


Вы не можете начинать темы
Вы не можете отвечать на сообщения
Вы не можете редактировать свои сообщения
Вы не можете удалять свои сообщения
Вы не можете добавлять вложения

Перейти:  
Ресурс не предоставляет электронные версии произведений, а занимается лишь коллекционированием и каталогизацией ссылок, присылаемых и публикуемых на форуме нашими читателями. Если вы являетесь правообладателем какого-либо представленного материала и не желаете чтобы ссылка на него находилась в нашем каталоге, свяжитесь с нами и мы незамедлительно удалим её. Файлы для обмена на трекере предоставлены пользователями сайта, и администрация не несёт ответственности за их содержание. Просьба не заливать файлы, защищенные авторскими правами, а также файлы нелегального содержания!
cron