Начать новую тему Ответить на тему
Статистика раздачи
Размер: 844.77 МБ | Добавлен: 09 апр 2019, 12:24 | Скачали: 3
Сидеров: 382  [0 байт/сек]    Личеров: 5  [0 байт/сек]
Пред. тема | След. тема 

Автор
Сообщение

СообщениеДобавлено: 09 апр 2019, 12:24 

Ответить с цитатой 

Chris Barber / Memories Of My Trip (2CD) (feat. Eric Clapton, James Cotton, Lonnie Donegan, Keith Emerson, Jeff Healey, Jools Holland, Mark Knopfler, Van Morrison, Muddy Waters and other)
Жанр: Jazz, Blues, Gospel
Носитель: CD
Страна-производитель диска: EU
Год издания: 2011
Издатель (лейбл): Proper Records
Номер по каталогу: PRPCD073
Страна исполнителя (группы): GB
Аудиокодек: FLAC (*.flac)
Тип рипа: image+.cue
Битрейт аудио: lossless
Продолжительность: (01:17:29) + (01:14:24)
Источник (релизер): Личный диск
Наличие сканов в содержимом раздачи: да
Треклист:
Disc 1 Blues, Jazz and Gospel
1. Memories of My Trip [02:55]
Brownie McGhee
2. When Things Go Wrong [02:44]
Ottilie Patterson, Sonny Terry & Brownie McGhee
with Dick, Graham, Eddie , Monty, Pat & Chris
3. Do Lord, Do Remember Me [02:27]
Ottilie Patterson, Sonny Terry & Brownie McGhee
with Dick, Graham, Eddie , Monty, Pat & Chris
4. Weeping Willow [03:55]
Eric Clapton and Chris Barber with Chris Stainton,
Dave Bronze and Henry Spinetti
5. Kansas City [07:02]
The Muddy Waters Blues Band with Chris Barber
6. Love Me or Leave Me [04:00]
James Cotton with Alexis Korner, Chris Barber and Keith Scott
7. Can't Be Satisfied [04:42]
Rory Gallagher with Chris Barber
8. Diggin' My Potatoes [05:38]
Lonnie Donagan with the Chris Barber Jazz & Blues Band
9. Goin' Up the River [07:49]
Jeff Healey with his Jazz Wizards with Chris Barber
10. How Long Blues [03:41]
Van Morrison with the Chris Barber Skiffle Group
11. Goin' Home [04:32]
Van Morrison with the Chris Barber Jazz & Blues Band
12. Oh Didn't He Ramble [05:33]
Van Morrison with the Chris Barber Jazz & Blues Band and Dr. John
13. Lonesome Road [04:41]
Ottillie Patterson with Chris Barber’s Jazz Band
14. I'll Be Rested [05:33]
Paul Jones with the Chris Barber Jazz & Blues Band
15. Precious Lord, Take My Hand [05:17]
Andy Fairweather Low with the Chris Barber Jazz & Blues Band
16. Couldn't Keep It To Myself [04:50]
Alex Bradford with Chris Barber’s Jazz Band and Singers
17. Another Sad One [02:01]
John Slaughters Last Blues
Disc 2 Jazz and Blues
1. St. Louis Blues/Missouri Special/St. Louis Blues [10:07]
Ottilie Patterson with Chris Barber’s Jazz Band and Edmond Hall
2. High Society [04:46]
Edmond Hall and Ian Wheeler with Chris Barber’s Jazz Band
3. Rock Candy [02:57]
Keith Emerson and the T-Bones with Chris Barber
4. Georgia On My Mind [10:18]
Trummy Young with the Chris Barber Jazz & Blues Band
5. Rose Room [05:11]
Joe Darensbourg with Pat Halcox and Chris Barber
6. C-Jam Blues [06:02]
Albert Nicholas with Chris Barber’s Jazz Band
7. Tea Party Blues [06:30]
Chris Barber at the Boston Tea Party
8. Jack Teagarden Blues [06:27]
Eddie Durham with the Chris Barber Jazz & Blues Band
9. Tailgate Boogie [04:25]
Sammy Price, Sandy Brown and Chris Barber with Keith Smith
10. Winin' Boy Blues [02:54]
Chris Barber’s Six -Piece featuring Jools Holland
11. On the Sunny Side of the Street [04:42]
Chris Barber’s Six -Piece featuring Jools Holland
12. Blues Stay Away From Me [03:44]
Mark Knopfler with Chris Barber’s Jazz Band
13. Dallas Rag [02:48]
Mark Knopfler with Chris Barber’s Jazz Band
14. 'Til the Next Time I'm In Town [03:26]
Mark Knopfler with Chris Barber’s Jazz Band
Код:
Exact Audio Copy V1.0 beta 3 from 29. August 2011
EAC extraction logfile from 8. October 2014, 9:24
Chris Barber /  Memories Of My Trip CD1
Used drive  : ASUS    SDRW-08D1S-U   Adapter: 1  ID: 0
Read mode               : Secure
Utilize accurate stream : Yes
Defeat audio cache      : Yes
Make use of C2 pointers : No
Read offset correction                      : 667
Overread into Lead-In and Lead-Out          : No
Fill up missing offset samples with silence : Yes
Delete leading and trailing silent blocks   : No
Null samples used in CRC calculations       : Yes
Used interface                              : Native Win32 interface for Win NT & 2000
Used output format              : User Defined Encoder
Selected bitrate                : 128 kBit/s
Quality                         : High
Add ID3 tag                     : No
Command line compressor         : C:\Program Files (x86)\Exact Audio Copy\Flac\flac.exe
Additional command line options : -V -8 -T "Date=%year%" -T "Genre=%genre%" %source%
TOC of the extracted CD
     Track |   Start  |  Length  | Start sector | End sector
    ---------------------------------------------------------
        1  |  0:00.00 |  2:55.24 |         0    |    13148
        2  |  2:55.24 |  2:44.54 |     13149    |    25502
        3  |  5:40.03 |  2:27.07 |     25503    |    36534
        4  |  8:07.10 |  3:55.65 |     36535    |    54224
        5  | 12:03.00 |  7:02.03 |     54225    |    85877
        6  | 19:05.03 |  4:00.18 |     85878    |   103895
        7  | 23:05.21 |  4:42.20 |    103896    |   125065
        8  | 27:47.41 |  5:38.24 |    125066    |   150439
        9  | 33:25.65 |  7:49.26 |    150440    |   185640
       10  | 41:15.16 |  3:41.61 |    185641    |   202276
       11  | 44:57.02 |  4:32.68 |    202277    |   222744
       12  | 49:29.70 |  5:33.68 |    222745    |   247787
       13  | 55:03.63 |  4:41.47 |    247788    |   268909
       14  | 59:45.35 |  5:33.71 |    268910    |   293955
       15  | 65:19.31 |  5:17.47 |    293956    |   317777
       16  | 70:37.03 |  4:50.22 |    317778    |   339549
       17  | 75:27.25 |  2:01.74 |    339550    |   348698
Range status and errors
Selected range
     Filename C:\Users\Олег\Desktop\Chris Barber -  Memories Of My Trip CD1.wav
     Peak level 100.0 %
     Extraction speed 4.3 X
     Range quality 99.9 %
     Test CRC EF09C6EC
     Copy CRC EF09C6EC
     Copy OK
No errors occurred
AccurateRip summary
Track  1  accurately ripped (confidence 7)  [D3B3990E]  (AR v2)
Track  2  accurately ripped (confidence 7)  [6D6F9041]  (AR v2)
Track  3  accurately ripped (confidence 7)  [475022F4]  (AR v2)
Track  4  accurately ripped (confidence 7)  [7785E816]  (AR v2)
Track  5  accurately ripped (confidence 7)  [F9A8AE39]  (AR v2)
Track  6  accurately ripped (confidence 7)  [CC9074DC]  (AR v2)
Track  7  accurately ripped (confidence 7)  [430DF840]  (AR v2)
Track  8  accurately ripped (confidence 7)  [5B22B5BA]  (AR v2)
Track  9  accurately ripped (confidence 7)  [0E4CF7B7]  (AR v2)
Track 10  accurately ripped (confidence 7)  [919784CE]  (AR v2)
Track 11  accurately ripped (confidence 7)  [A066223A]  (AR v2)
Track 12  accurately ripped (confidence 7)  [9A56D6FF]  (AR v2)
Track 13  accurately ripped (confidence 7)  [086A83E8]  (AR v2)
Track 14  accurately ripped (confidence 7)  [7A143DE7]  (AR v2)
Track 15  accurately ripped (confidence 7)  [25AC5C0F]  (AR v2)
Track 16  accurately ripped (confidence 7)  [E4E5FFF9]  (AR v2)
Track 17  accurately ripped (confidence 7)  [C834EF57]  (AR v2)
All tracks accurately ripped
End of status report
==== Log checksum 32890F94491F50836DE4AF07177023814E9C6B8AEFCE951C471ACCE8FA42A4B9 ====
Код:
Exact Audio Copy V1.0 beta 3 from 29. August 2011
EAC extraction logfile from 8. October 2014, 12:19
Chris Barber /  Memories of my trip CD2
Used drive  : ASUS    SDRW-08D1S-U   Adapter: 1  ID: 0
Read mode               : Secure
Utilize accurate stream : Yes
Defeat audio cache      : Yes
Make use of C2 pointers : No
Read offset correction                      : 667
Overread into Lead-In and Lead-Out          : No
Fill up missing offset samples with silence : Yes
Delete leading and trailing silent blocks   : No
Null samples used in CRC calculations       : Yes
Used interface                              : Native Win32 interface for Win NT & 2000
Used output format              : User Defined Encoder
Selected bitrate                : 128 kBit/s
Quality                         : High
Add ID3 tag                     : No
Command line compressor         : C:\Program Files (x86)\Exact Audio Copy\Flac\flac.exe
Additional command line options : -V -8 -T "Date=%year%" -T "Genre=%genre%" %source%
TOC of the extracted CD
     Track |   Start  |  Length  | Start sector | End sector
    ---------------------------------------------------------
        1  |  0:00.00 | 10:07.57 |         0    |    45581
        2  | 10:07.57 |  4:46.62 |     45582    |    67093
        3  | 14:54.44 |  2:57.08 |     67094    |    80376
        4  | 17:51.52 | 10:18.62 |     80377    |   126788
        5  | 28:10.39 |  5:11.43 |    126789    |   150156
        6  | 33:22.07 |  6:02.42 |    150157    |   177348
        7  | 39:24.49 |  6:30.32 |    177349    |   206630
        8  | 45:55.06 |  6:27.51 |    206631    |   235706
        9  | 52:22.57 |  4:25.29 |    235707    |   255610
       10  | 56:48.11 |  2:54.31 |    255611    |   268691
       11  | 59:42.42 |  4:42.58 |    268692    |   289899
       12  | 64:25.25 |  3:44.17 |    289900    |   306716
       13  | 68:09.42 |  2:48.17 |    306717    |   319333
       14  | 70:57.59 |  3:26.49 |    319334    |   334832
Range status and errors
Selected range
     Filename C:\Users\Олег\Desktop\Chris Barber\CD2\Chris Barber -  Memories of my trip CD2.wav
     Peak level 100.0 %
     Extraction speed 4.2 X
     Range quality 99.9 %
     Test CRC CA688BBC
     Copy CRC CA688BBC
     Copy OK
No errors occurred
AccurateRip summary
Track  1  accurately ripped (confidence 6)  [79D29D29]  (AR v2)
Track  2  accurately ripped (confidence 7)  [AD86ED1E]  (AR v2)
Track  3  accurately ripped (confidence 6)  [36AA718F]  (AR v2)
Track  4  accurately ripped (confidence 7)  [36ACB8B8]  (AR v2)
Track  5  accurately ripped (confidence 7)  [77885C6A]  (AR v2)
Track  6  accurately ripped (confidence 7)  [443AF99F]  (AR v2)
Track  7  accurately ripped (confidence 7)  [AF998967]  (AR v2)
Track  8  accurately ripped (confidence 7)  [9BCCB54D]  (AR v2)
Track  9  accurately ripped (confidence 7)  [8207EB1A]  (AR v2)
Track 10  accurately ripped (confidence 7)  [465BCAA3]  (AR v2)
Track 11  accurately ripped (confidence 8)  [0008CA28]  (AR v2)
Track 12  accurately ripped (confidence 7)  [153C99CB]  (AR v2)
Track 13  accurately ripped (confidence 7)  [41B780F2]  (AR v2)
Track 14  accurately ripped (confidence 7)  [C8F696E1]  (AR v2)
All tracks accurately ripped
End of status report
==== Log checksum DD197C7E936EA141016E41C878F46BB5265F419F07CFBBA33980E3778D14B476 ====
Код:
REM GENRE Jazz
REM DATE 2011
REM DISCID 15122911
REM COMMENT "ExactAudioCopy v1.0b3"
PERFORMER "Chris Barber"
TITLE " Memories Of My Trip CD1"
FILE "Chris Barber -  Memories Of My Trip CD1.flac" WAVE
  TRACK 01 AUDIO
    TITLE "Memories Of My Trip"
    PERFORMER "Chris Barber"
    INDEX 01 00:00:00
  TRACK 02 AUDIO
    TITLE "When Things Go Wrong"
    PERFORMER "Chris Barber"
    INDEX 01 02:55:24
  TRACK 03 AUDIO
    TITLE "Do Lord, Do Remember Me"
    PERFORMER "Chris Barber"
    INDEX 01 05:40:03
  TRACK 04 AUDIO
    TITLE "Weeping Willow"
    PERFORMER "Chris Barber"
    INDEX 01 08:07:10
  TRACK 05 AUDIO
    TITLE "Kansas City"
    PERFORMER "Chris Barber"
    INDEX 01 12:03:00
  TRACK 06 AUDIO
    TITLE "Love Me Or Leave Me"
    PERFORMER "Chris Barber"
    INDEX 01 19:05:03
  TRACK 07 AUDIO
    TITLE "Can't Be Satisfied"
    PERFORMER "Chris Barber"
    INDEX 01 23:05:21
  TRACK 08 AUDIO
    TITLE "Diggin' My Potatoes"
    PERFORMER "Chris Barber"
    INDEX 01 27:47:41
  TRACK 09 AUDIO
    TITLE "Goin' Up The River"
    PERFORMER "Chris Barber"
    INDEX 01 33:25:65
  TRACK 10 AUDIO
    TITLE "How Long Blues"
    PERFORMER "Chris Barber"
    INDEX 01 41:15:16
  TRACK 11 AUDIO
    TITLE "Goin' Home"
    PERFORMER "Chris Barber"
    INDEX 01 44:57:02
  TRACK 12 AUDIO
    TITLE "Oh Didn't He Ramble"
    PERFORMER "Chris Barber"
    INDEX 01 49:29:70
  TRACK 13 AUDIO
    TITLE "Lonesome Road"
    PERFORMER "Chris Barber"
    INDEX 01 55:03:63
  TRACK 14 AUDIO
    TITLE "I'll Be Rested"
    PERFORMER "Chris Barber"
    INDEX 01 59:45:35
  TRACK 15 AUDIO
    TITLE "Precious Lord, Take My Hand"
    PERFORMER "Chris Barber"
    INDEX 01 65:19:31
  TRACK 16 AUDIO
    TITLE "Couldn't Keep It To Myself"
    PERFORMER "Chris Barber"
    INDEX 01 70:37:03
  TRACK 17 AUDIO
    TITLE "Another Sad One"
    PERFORMER "Chris Barber"
    INDEX 01 75:27:25
Код:
REM GENRE Jazz
REM DATE 2011
REM DISCID D311700E
REM COMMENT "ExactAudioCopy v1.0b3"
PERFORMER "Chris Barber"
TITLE " Memories of my trip CD2"
FILE "Chris Barber -  Memories of my trip CD2.flac" WAVE
  TRACK 01 AUDIO
    TITLE "St. Louis Blues/Missouri Blues/St. Louis Blues"
    PERFORMER "Chris Barber"
    INDEX 01 00:00:00
  TRACK 02 AUDIO
    TITLE "High Society"
    PERFORMER "Chris Barber"
    INDEX 01 10:07:57
  TRACK 03 AUDIO
    TITLE "Rock Candy"
    PERFORMER "Chris Barber"
    INDEX 01 14:54:44
  TRACK 04 AUDIO
    TITLE "Georgia On My Mind"
    PERFORMER "Chris Barber"
    INDEX 01 17:51:52
  TRACK 05 AUDIO
    TITLE "Rose Room"
    PERFORMER "Chris Barber"
    INDEX 01 28:10:39
  TRACK 06 AUDIO
    TITLE "C-Jam Blues"
    PERFORMER "Chris Barber"
    INDEX 01 33:22:07
  TRACK 07 AUDIO
    TITLE "Tea Party Blues"
    PERFORMER "Chris Barber"
    INDEX 01 39:24:49
  TRACK 08 AUDIO
    TITLE "Jack Teagarden Blues"
    PERFORMER "Chris Barber"
    INDEX 01 45:55:06
  TRACK 09 AUDIO
    TITLE "Tailgate Boogie"
    PERFORMER "Chris Barber"
    INDEX 01 52:22:57
  TRACK 10 AUDIO
    TITLE "Winin' Boy"
    PERFORMER "Chris Barber"
    INDEX 01 56:48:11
  TRACK 11 AUDIO
    TITLE "On The Sunny Side Of The Street"
    PERFORMER "Chris Barber"
    INDEX 01 59:42:42
  TRACK 12 AUDIO
    TITLE "Blues Stay Away From Me"
    PERFORMER "Chris Barber"
    INDEX 01 64:25:25
  TRACK 13 AUDIO
    TITLE "Dallas Rag"
    PERFORMER "Chris Barber"
    INDEX 01 68:09:42
  TRACK 14 AUDIO
    TITLE "'Til The Next Time I'm In Town"
    PERFORMER "Chris Barber"
    INDEX 01 70:57:59
Правила, инструкции, FAQ!!!
Торрент  Добавлен [09 апр 2019, 12:24] Скачать торрент Магнет ссылка
Скачать торрент
[ Размер 18.31 КБ / Просмотров 19 ]

Статус
Проверен 
 
Размер  844.77 МБ
Приватный: Нет (DHT включён)
.torrent скачан  3
Как залить торрент? | Как скачать Torrent? | Ошибка в торренте? Качайте магнет  


     Отправить личное сообщение
   
Страница 1 из 1
Показать сообщения за:  Поле сортировки  
Начать новую тему Ответить на тему


Сейчас этот форум просматривают: нет зарегистрированных пользователей и гости: 0


Вы не можете начинать темы
Вы не можете отвечать на сообщения
Вы не можете редактировать свои сообщения
Вы не можете удалять свои сообщения
Вы не можете добавлять вложения

Перейти:  
Ресурс не предоставляет электронные версии произведений, а занимается лишь коллекционированием и каталогизацией ссылок, присылаемых и публикуемых на форуме нашими читателями. Если вы являетесь правообладателем какого-либо представленного материала и не желаете чтобы ссылка на него находилась в нашем каталоге, свяжитесь с нами и мы незамедлительно удалим её. Файлы для обмена на трекере предоставлены пользователями сайта, и администрация не несёт ответственности за их содержание. Просьба не заливать файлы, защищенные авторскими правами, а также файлы нелегального содержания!