Статистика раздачи
Размер: 4.69 ГБ | Добавлен: 10 сен 2019, 20:28 | Скачали: 0
Сидеров: 0  [0 байт/сек]    Личеров: 0  [0 байт/сек]
Пред. тема | След. тема 

Автор
Сообщение

СообщениеДобавлено: 10 сен 2019, 20:28 


Charli XCX


feed
Жанр: Synthpop, Indietronica, Darkwave
Продолжительность: 00:42:51
Год выпуска: 23 Aug 2019
Качество: HDTV
Разрешение видео/развертка: 1080i
Контейнер: TS
Видео кодек: H.264
Аудио кодек: MP2
Видео: MPEG4 Video (H264) 1920x1080 25fps 15.1 Mb/s
Аудио: MPEG Audio 48000Hz stereo 256kbps
Track 10
Blame It on Your Love
Gone
I Love It
Cross You Out
Fancy
Focus
Spicy
Boys
Girls Night Out
1999 (Charli XCX & Troye Sivan cover)
1999 (EASYFUN Remix) (Charli XCX & Troye Sivan cover)
Boom Clap
Код:
General
ID                             : 0 (0x0)
Complete name                  : F:\Charli XCX - Reading and Leeds Festival 2019.ts
Format                         : MPEG-TS
File size                      : 4.69 GiB
Duration                       : 42 min 51 s
Overall bit rate mode          : Variable
Overall bit rate               : 15.7 Mb/s
Video
ID                             : 512 (0x200)
Menu ID                        : 1 (0x1)
Format                         : AVC
Format/Info                    : Advanced Video Codec
Format profile                 : High@L4
Format settings                : CABAC / 3 Ref Frames
Format settings, CABAC         : Yes
Format settings, Reference fra : 3 frames
Format settings, GOP           : M=4, N=24
Codec ID                       : 27
Duration                       : 42 min 51 s
Bit rate mode                  : Constant
Bit rate                       : 15.1 Mb/s
Width                          : 1 920 pixels
Height                         : 1 080 pixels
Display aspect ratio           : 16:9
Frame rate                     : 25.000 FPS
Color space                    : YUV
Chroma subsampling             : 4:2:0
Bit depth                      : 8 bits
Scan type                      : MBAFF
Scan type, store method        : Interleaved fields
Scan order                     : Top Field First
Bits/(Pixel*Frame)             : 0.290
Stream size                    : 4.31 GiB (92%)
Color range                    : Limited
Color primaries                : BT.709
Transfer characteristics       : BT.709
Matrix coefficients            : BT.709
Audio #1
ID                             : 4112 (0x1010)
Menu ID                        : 1 (0x1)
Format                         : MPEG Audio
Format version                 : Version 1
Format profile                 : Layer 2
Codec ID                       : 3
Duration                       : 42 min 51 s
Bit rate mode                  : Constant
Bit rate                       : 256 kb/s
Channel(s)                     : 2 channels
Sampling rate                  : 48.0 kHz
Frame rate                     : 41.667 FPS (1152 SPF)
Compression mode               : Lossy
Delay relative to video        : 8 ms
Stream size                    : 78.5 MiB (2%)
Language                       : German
Language, more info            : Clean effects
Audio #2
ID                             : 4128 (0x1020)
Menu ID                        : 1 (0x1)
Format                         : MPEG Audio
Format version                 : Version 1
Format profile                 : Layer 2
Codec ID                       : 3
Duration                       : 42 min 51 s
Bit rate mode                  : Constant
Bit rate                       : 256 kb/s
Channel(s)                     : 2 channels
Sampling rate                  : 48.0 kHz
Frame rate                     : 41.667 FPS (1152 SPF)
Compression mode               : Lossy
Delay relative to video        : 8 ms
Stream size                    : 78.5 MiB (2%)
Language                       : German
Language, more info            : Clean effects
Правила, инструкции, FAQ!!!
Торрент  Добавлен [10 сен 2019, 20:28] Скачать торрент Магнет ссылка
Скачать торрент
[ Размер 12.2 КБ / Просмотров 6 ]

Статус
Проверен 
 
Размер  4.69 ГБ
Приватный: Нет (DHT включён)
.torrent скачан  0
Как залить торрент? | Как скачать Torrent? | Ошибка в торренте? Качайте магнет  


     Отправить личное сообщение
   
Страница 1 из 1


Сейчас этот форум просматривают: нет зарегистрированных пользователей и гости: 0


Вы не можете начинать темы
Вы не можете отвечать на сообщения
Вы не можете редактировать свои сообщения
Вы не можете удалять свои сообщения
Вы не можете добавлять вложения

Перейти:  
Ресурс не предоставляет электронные версии произведений, а занимается лишь коллекционированием и каталогизацией ссылок, присылаемых и публикуемых на форуме нашими читателями. Если вы являетесь правообладателем какого-либо представленного материала и не желаете чтобы ссылка на него находилась в нашем каталоге, свяжитесь с нами и мы незамедлительно удалим её. Файлы для обмена на трекере предоставлены пользователями сайта, и администрация не несёт ответственности за их содержание. Просьба не заливать файлы, защищенные авторскими правами, а также файлы нелегального содержания!