Статистика раздачи
Размер: 4.27 ГБ | Добавлен: 10 сен 2019, 20:25 | Скачали: 3
Сидеров: 20  [0 байт/сек]    Личеров: 5  [0 байт/сек]
Пред. тема | След. тема 

Автор
Сообщение

СообщениеДобавлено: 10 сен 2019, 20:25 

Testament - Summer Breeze 2019 Rockpalast
Жанр: Thrash Metal
Продолжительность: 01:00:45
Год выпуска: 09.09.2019
Канал: By
Описание: Summer Breeze - 15. August 2019: Sie gehören zu den wichtigsten Metalbands aller Zeiten: Testament aus Berkeley, Kalifornien. Die Band um den charismatischen Frontmann Chuck Billy spielt schnellen und knüppelharten Thrash Metal mit melodischen Midtempo-Parts.
Summer Breeze - 15 августа 2019 года: Это одна из самых значимых металлических групп всех времен: Testament из Беркли, Калифорния. Группа, ядром которой является харизматичный фронтмен Чак Билли, играет быстрый и жёсткий Thrash Metal с мелодичными партиями среднего темпа.
Качество: SAT, HDTV
Разрешение видео/развертка: 720p
Контейнер: *.ts
Видео кодек: H.264
Аудио кодек: MP2, AC-3
Видео: AVC, 1280х720 (16/9), 50,000 fps, 8 725 kb/s
Аудио 1: MPEG, 192 Kbps, 48 KHz, 2.0 channels
Аудио 2: MPEG, 192 Kbps, 48 KHz, 2.0 channels
Аудио 3: AC-3, 448 Kbps, 48 KHz, 2.0 channels
Запись видео:
Программа корректировки и конвертации видео: Cypheros TS-Doctor ver. 1.2.22
01. Testament - Intro
02. Testament - "Brotherhood Of The Snake"
03. Testament - "The Pale King"
04. Testament - "More Than Meets The Eye"
05. Testament - "D.N.R. (Do Not Resuscitate)"
06. Testament - "Low"
07. Testament - "Into The Pit"
08. Testament - "Electric Crown"
09. Testament - "Practice What You Preach"
10. Testament - "The New Order"
11. Testament - "Over The Wall"
12. Testament - "Disciples Of The Watch"
13. Testament - "The Formation Of Damnation"
Код:
General
ID                             : 1111 (0x457)
Complete name                  : D:\d\TORRENTS.RU\Testament - Summer Breeze 2019 - WDR HD Bonn.ts
Format                         : MPEG-TS
File size                      : 4.27 GiB
Duration                       : 1 h 0 min
Overall bit rate mode          : Variable
Overall bit rate               : 10.1 Mb/s
Video
ID                             : 5601 (0x15E1)
Menu ID                        : 28546 (0x6F82)
Format                         : AVC
Format/Info                    : Advanced Video Codec
Format profile                 : High@L4
Format settings, CABAC         : Yes
Format settings, RefFrames     : 4 frames
Codec ID                       : 27
Duration                       : 1 h 0 min
Bit rate                       : 8 725 kb/s
Width                          : 1 280 pixels
Height                         : 720 pixels
Display aspect ratio           : 16:9
Frame rate                     : 50.000 FPS
Color space                    : YUV
Chroma subsampling             : 4:2:0
Bit depth                      : 8 bits
Scan type                      : Progressive
Bits/(Pixel*Frame)             : 0.189
Stream size                    : 3.70 GiB (87%)
Audio #1
ID                             : 5602 (0x15E2)
Menu ID                        : 28546 (0x6F82)
Format                         : MPEG Audio
Format version                 : Version 1
Format profile                 : Layer 2
Codec ID                       : 3
Duration                       : 1 h 0 min
Bit rate mode                  : Constant
Bit rate                       : 192 kb/s
Channel(s)                     : 2 channels
Sampling rate                  : 48.0 kHz
Compression mode               : Lossy
Delay relative to video        : 72 ms
Stream size                    : 83.4 MiB (2%)
Language                       : German
Audio #2
ID                             : 5603 (0x15E3)
Menu ID                        : 28546 (0x6F82)
Format                         : MPEG Audio
Format version                 : Version 1
Format profile                 : Layer 2
Codec ID                       : 3
Duration                       : 1 h 0 min
Bit rate mode                  : Constant
Bit rate                       : 192 kb/s
Channel(s)                     : 2 channels
Sampling rate                  : 48.0 kHz
Compression mode               : Lossy
Delay relative to video        : 72 ms
Stream size                    : 83.4 MiB (2%)
Audio #3
ID                             : 5606 (0x15E6)
Menu ID                        : 28546 (0x6F82)
Format                         : AC-3
Format/Info                    : Audio Coding 3
Format settings, Endianness    : Big
Codec ID                       : 6
Duration                       : 1 h 0 min
Bit rate mode                  : Constant
Bit rate                       : 448 kb/s
Channel(s)                     : 2 channels
Channel positions              : Front: L R
Sampling rate                  : 48.0 kHz
Frame rate                     : 31.250 FPS (1536 SPF)
Bit depth                      : 16 bits
Compression mode               : Lossy
Delay relative to video        : 122 ms
Stream size                    : 195 MiB (4%)
Language                       : German
Service kind                   : Complete Main
Правила, инструкции, FAQ!!!
Торрент  Добавлен [10 сен 2019, 20:25] Скачать торрент Магнет ссылка
Скачать торрент
[ Размер 11.15 КБ / Просмотров 17 ]

Статус
Проверен 
 
Размер  4.27 ГБ
Приватный: Нет (DHT включён)
.torrent скачан  3
Как залить торрент? | Как скачать Torrent? | Ошибка в торренте? Качайте магнет  


     Отправить личное сообщение
   
Страница 1 из 1


Сейчас этот форум просматривают: нет зарегистрированных пользователей и гости: 2


Вы не можете начинать темы
Вы не можете отвечать на сообщения
Вы не можете редактировать свои сообщения
Вы не можете удалять свои сообщения
Вы не можете добавлять вложения

Перейти:  
Ресурс не предоставляет электронные версии произведений, а занимается лишь коллекционированием и каталогизацией ссылок, присылаемых и публикуемых на форуме нашими читателями. Если вы являетесь правообладателем какого-либо представленного материала и не желаете чтобы ссылка на него находилась в нашем каталоге, свяжитесь с нами и мы незамедлительно удалим её. Файлы для обмена на трекере предоставлены пользователями сайта, и администрация не несёт ответственности за их содержание. Просьба не заливать файлы, защищенные авторскими правами, а также файлы нелегального содержания!