Статистика раздачи
Размер: 41.8 ГБ | Добавлен: 10 сен 2019, 20:23 | Скачали: 1
Сидеров: 3  [0 байт/сек]    Личеров: 1  [0 байт/сек]
Пред. тема | След. тема 

Автор
Сообщение

СообщениеДобавлено: 10 сен 2019, 20:23 

Runrig
The Last Dance - Farewell Concert Film


[Жанр: Folk Rock
Продолжительность: 03:03:09+00:23:59
Год выпуска: 16 Aug 2019
Описание: 180 minute concert film of Runrig’s “Last Dance”, live from Stirling in August 2018. Packed with Bonus Material: The Road To The Last Dance Mini Documentary; The Last Dance Trailer; Extended Film Intro; Choose between stereo or 5.1 audio The “Final Mile” tour which triumphantly concluded with the spectacular “The Last Dance” concerts in Stirling, marking the end of 45 years of Runrig, Scotland’s most successful Celtic Rock band of all time.
Треклист:
1-The Years We Shared
2-Protect And Survive
3-Rocket To The Moon
4-Proterra (Feat. Laura Mcghee On Fiddle)
5-The Ship
6-Canada
7-The Greatest Flame
8-The Stamping Ground
9-Cnoc Na Feille
10-Onar (Feat. Dave Towers On Saxophone)
11-Year Of The Flood (Bruce Solo Acoustic)
12-The Place Where The Rivers Run
13-What Time?
14-In Search Of Angels (Brian On Vocals, Brian & Malcolm Solo)
15-Going Home
16-Cearcal A' Chuain (Feat The Glasgow Islay Choir & Donnie Munro)
17-The Story (Feat. Duncan Chisholm On Fiddle)
18-Maymorning / Hearts Of Olden Glory
19-Alba
20-Clash Of The Ash (Feat Gary Innes On Accordion)
21-Skye
22-Every River
23-When The Beauty / On The Edge
24-Somewhere (Feat Julie Fowlis)
25-Book Of Golden Stories
26-Pride Of The Summer (Beat The Drum)
27-An Toll Dubh
28-Loch Lomond
29-Hearts Of Olden Glory (Band Accapella - Closing Performance)
30-Hearts Of Olden Glory (Crowd Sing Accapella - Over Fireworks & Boards)
31-Cearcal A' Chuain (Choir Acapella Over Rolling Credits)
Bonus Material:
The Road To The Last Dance
The Last Dance Concert Trailer
Extended Film Intro

Качество: Blu-ray
Разрешение видео/развертка: 1080p
Контейнер: BDMV
Видео кодек: MPEG-4 AVC
Аудио кодек: PCM / DTS
Видео: MPEG-4 AVC Video / 21996 kbps / 1080p / 23,976 fps / 16:9 / High Profile 4.1
Аудио #1: LPCM Audio / English / 2.0 / 48 kHz / 2304 kbps / 24-bit
Аудио #2: DTS-HD Master Audio / English / 5.1 / 48 kHz / 4294 kbps / 24-bit (DTS Core: 5.1 / 48 kHz / 768 kbps / 24-bit)
Код:
Disc Title:     Runrig - The Last Dance. Farewell Concert Film
Disc Size:      44 877 485 332 bytes
Protection:     AACS
BD-Java:        No
BDInfo:         0.5.8
Notes:
BDINFO HOME:
  Cinema Squid
    [url=http://www.cinemasquid.com/blu-ray/tools/bdinfo]http://www.cinemasquid.com/blu-ray/tools/bdinfo[/url]
INCLUDES FORUMS REPORT FOR:
  AVS Forum Blu-ray Audio and Video Specifications Thread
    [url=http://www.avsforum.com/avs-vb/showthread.php?t=1155731]http://www.avsforum.com/avs-vb/showthread.php?t=1155731[/url]
********************
PLAYLIST: 00000.MPLS
********************
<--- BEGIN FORUMS PASTE --->
Код:
Код:
Total   Video
Title                                                           Codec   Length  Movie Size      Disc Size       Bitrate Bitrate Main Audio Track                          Secondary Audio Track
-----                                                           ------  ------- --------------  --------------  ------- ------- ------------------                        ---------------------
00000.MPLS                                                      AVC     3:03:09 41 364 547 584  44 877 485 332  30,11   22,00   LPCM 2.0 2304Kbps (48kHz/24-bit)          DTS-HD Master 5.1 4294Kbps (48kHz/24-bit)

Код:
Код:
DISC INFO:
Disc Title:     Runrig - The Last Dance. Farewell Concert Film
Disc Size:      44 877 485 332 bytes
Protection:     AACS
BD-Java:        No
BDInfo:         0.5.8
PLAYLIST REPORT:
Name:                   00000.MPLS
Length:                 3:03:09.770 (h:m:s.ms)
Size:                   41 364 547 584 bytes
Total Bitrate:          30,11 Mbps
VIDEO:
Codec                   Bitrate             Description
-----                   -------             -----------
MPEG-4 AVC Video        21996 kbps          1080p / 23,976 fps / 16:9 / High Profile 4.1
AUDIO:
Codec                           Language        Bitrate         Description
-----                           --------        -------         -----------
LPCM Audio                      English         2304 kbps       2.0 / 48 kHz / 2304 kbps / 24-bit
DTS-HD Master Audio             English         4294 kbps       5.1 / 48 kHz / 4294 kbps / 24-bit (DTS Core: 5.1 / 48 kHz / 768 kbps / 24-bit)
FILES:
Name            Time In         Length          Size            Total Bitrate
----            -------         ------          ----            -------------
00000.M2TS      0:00:00.000     1:51:03.365     24 858 875 904  29 845
00014.M2TS      1:51:03.365     0:00:11.052     42 135 552      30 498
00013.M2TS      1:51:14.417     1:11:55.352     16 463 536 128  30 521
CHAPTERS:
Number          Time In         Length          Avg Video Rate  Max 1-Sec Rate  Max 1-Sec Time  Max 5-Sec Rate  Max 5-Sec Time  Max 10Sec Rate  Max 10Sec Time  Avg Frame Size  Max Frame Size  Max Frame Time
------          -------         ------          --------------  --------------  --------------  --------------  --------------  --------------  --------------  --------------  --------------  --------------
1               0:00:00.000     0:03:38.009     18 908 kbps     35 744 kbps     00:03:27.040    31 915 kbps     00:02:45.039    30 141 kbps     00:02:42.078    98 560 bytes    638 318 bytes   00:03:21.159
2               0:03:38.009     0:05:02.385     23 758 kbps     36 120 kbps     00:06:13.122    32 566 kbps     00:08:23.836    32 038 kbps     00:08:19.999    123 865 bytes   562 165 bytes   00:08:20.041
3               0:08:40.394     0:05:37.879     25 550 kbps     35 693 kbps     00:13:33.771    32 675 kbps     00:13:31.602    31 516 kbps     00:13:46.116    133 204 bytes   530 049 bytes   00:08:55.910
4               0:14:18.274     0:05:24.907     22 367 kbps     34 548 kbps     00:17:39.725    32 177 kbps     00:16:34.118    29 617 kbps     00:17:26.378    116 609 bytes   569 281 bytes   00:18:57.553
5               0:19:43.182     0:07:01.087     24 954 kbps     37 334 kbps     00:24:05.485    32 532 kbps     00:24:01.439    31 823 kbps     00:19:45.475    130 098 bytes   540 168 bytes   00:20:20.636
6               0:26:44.269     0:04:53.376     24 644 kbps     35 669 kbps     00:31:34.642    32 053 kbps     00:27:28.313    31 297 kbps     00:27:28.313    128 483 bytes   572 192 bytes   00:31:14.872
7               0:31:37.645     0:05:23.948     20 727 kbps     34 098 kbps     00:31:58.166    31 715 kbps     00:36:56.589    30 195 kbps     00:31:51.826    108 060 bytes   497 478 bytes   00:37:01.594
8               0:37:01.594     0:04:51.582     22 013 kbps     34 546 kbps     00:39:12.725    31 987 kbps     00:39:12.683    30 381 kbps     00:38:47.199    114 768 bytes   470 057 bytes   00:41:08.799
9               0:41:53.177     0:04:45.618     22 666 kbps     34 502 kbps     00:43:00.869    31 568 kbps     00:46:33.791    30 010 kbps     00:44:51.438    118 170 bytes   595 202 bytes   00:45:52.791
10              0:46:38.796     0:06:25.176     19 401 kbps     33 813 kbps     00:52:18.760    31 723 kbps     00:49:21.500    27 182 kbps     00:52:53.962    101 147 bytes   626 948 bytes   00:50:49.504
11              0:53:03.972     0:07:00.628     21 888 kbps     34 339 kbps     00:57:20.645    32 013 kbps     00:57:20.520    31 283 kbps     00:57:18.393    114 112 bytes   556 726 bytes   00:56:45.276
12              1:00:04.601     0:05:52.393     20 327 kbps     34 247 kbps     01:05:53.157    32 740 kbps     01:05:02.398    32 076 kbps     01:04:57.393    105 976 bytes   469 236 bytes   01:05:54.158
13              1:05:56.994     0:04:39.904     23 501 kbps     34 695 kbps     01:10:33.437    31 987 kbps     01:10:31.477    30 559 kbps     01:10:26.889    122 524 bytes   631 506 bytes   01:07:49.398
14              1:10:36.899     0:04:15.004     19 940 kbps     34 470 kbps     01:12:30.554    30 342 kbps     01:14:05.190    26 781 kbps     01:12:25.716    103 959 bytes   543 834 bytes   01:14:05.232
15              1:14:51.904     0:03:56.819     19 224 kbps     30 813 kbps     01:18:40.841    29 570 kbps     01:18:40.757    27 975 kbps     01:18:38.672    100 227 bytes   417 389 bytes   01:18:47.556
16              1:18:48.724     0:06:05.156     19 318 kbps     34 098 kbps     01:21:44.482    32 013 kbps     01:24:00.160    30 712 kbps     01:23:58.575    100 718 bytes   440 197 bytes   01:22:23.521
17              1:24:53.880     0:04:27.475     19 368 kbps     32 651 kbps     01:28:00.858    30 784 kbps     01:27:57.689    25 430 kbps     01:25:35.713    100 974 bytes   476 480 bytes   01:26:05.076
18              1:29:21.356     0:06:53.162     19 327 kbps     34 213 kbps     01:36:12.850    32 163 kbps     01:36:08.679    28 375 kbps     01:35:49.994    100 761 bytes   456 972 bytes   01:29:22.482
19              1:36:14.518     0:08:30.760     22 505 kbps     35 758 kbps     01:38:47.087    32 132 kbps     01:39:40.766    31 885 kbps     01:37:51.865    117 333 bytes   528 007 bytes   01:39:53.278
20              1:44:45.279     0:05:25.324     21 856 kbps     37 522 kbps     01:48:53.944    31 131 kbps     01:47:11.883    29 653 kbps     01:49:49.749    113 945 bytes   539 179 bytes   01:44:49.074
21              1:50:10.603     0:07:01.420     24 900 kbps     36 358 kbps     01:57:08.855    32 649 kbps     01:53:49.322    32 050 kbps     01:53:47.320    129 803 bytes   529 002 bytes   01:52:43.590
22              1:57:12.024     0:09:24.563     22 303 kbps     36 094 kbps     01:57:55.193    32 015 kbps     02:04:38.762    30 883 kbps     02:04:33.716    116 279 bytes   547 857 bytes   02:05:31.941
23              2:06:36.588     0:11:20.680     22 403 kbps     36 285 kbps     02:08:35.999    32 394 kbps     02:07:51.163    32 041 kbps     02:07:46.158    116 798 bytes   596 308 bytes   02:08:34.706
24              2:17:57.268     0:05:34.334     18 100 kbps     34 401 kbps     02:20:19.202    32 403 kbps     02:20:19.202    31 834 kbps     02:20:15.198    94 366 bytes    521 849 bytes   02:19:44.042
25              2:23:31.602     0:04:17.131     24 292 kbps     36 897 kbps     02:23:57.045    32 614 kbps     02:26:37.205    32 147 kbps     02:26:12.555    126 646 bytes   417 726 bytes   02:24:43.424
26              2:27:48.734     0:06:49.534     21 356 kbps     35 727 kbps     02:27:54.240    32 032 kbps     02:27:50.278    31 316 kbps     02:28:20.349    111 343 bytes   567 140 bytes   02:27:55.116
27              2:34:38.268     0:04:17.423     23 351 kbps     37 200 kbps     02:38:02.764    33 045 kbps     02:37:58.719    31 885 kbps     02:37:55.674    121 741 bytes   599 740 bytes   02:37:45.831
28              2:38:55.692     0:01:50.193     21 478 kbps     34 348 kbps     02:40:13.603    30 380 kbps     02:40:13.687    28 158 kbps     02:40:13.687    111 975 bytes   483 990 bytes   02:40:15.397
29              2:40:45.886     0:01:14.240     23 730 kbps     36 397 kbps     02:41:54.496    29 507 kbps     02:41:15.874    27 113 kbps     02:41:14.831    123 787 bytes   572 890 bytes   02:41:48.156
30              2:42:00.127     0:13:02.948     24 802 kbps     36 109 kbps     02:53:23.684    32 551 kbps     02:52:06.357    32 228 kbps     02:52:24.917    129 301 bytes   638 226 bytes   02:53:34.070
31              2:55:03.075     0:08:06.694     19 228 kbps     37 329 kbps     02:59:42.605    32 713 kbps     03:00:36.325    31 103 kbps     02:57:53.204    100 262 bytes   566 897 bytes   02:57:53.746
STREAM DIAGNOSTICS:
File            PID             Type            Codec           Language                Seconds                 Bitrate                 Bytes           Packets
----            ---             ----            -----           --------                --------------          --------------          -------------   -----
00000.M2TS      4113 (0x1011)   0x1B            AVC                                     6663,198                21 711                  18 082 752 056  98 368 343
00000.M2TS      4352 (0x1100)   0x80            LPCM            eng (English)           6663,198                2 310                   1 924 381 256   10 661 392
00000.M2TS      4353 (0x1101)   0x86            DTS-HD MA       eng (English)           6663,198                4 324                   3 601 836 756   20 220 337
00014.M2TS      4113 (0x1011)   0x1B            AVC                                     10,886                  22 293                  30 334 970      165 021
00014.M2TS      4352 (0x1100)   0x80            LPCM            eng (English)           10,886                  2 346                   3 192 684       17 688
00014.M2TS      4353 (0x1101)   0x86            DTS-HD MA       eng (English)           10,886                  4 776                   6 499 016       36 382
00013.M2TS      4113 (0x1011)   0x1B            AVC                                     4315,186                22 438                  12 102 920 427  65 836 260
00013.M2TS      4352 (0x1100)   0x80            LPCM            eng (English)           4315,186                2 311                   1 246 286 076   6 904 632
00013.M2TS      4353 (0x1101)   0x86            DTS-HD MA       eng (English)           4315,186                4 245                   2 289 892 708   12 862 131

Код:
<---- END FORUMS PASTE ---->
QUICK SUMMARY:
Disc Title: Runrig - The Last Dance. Farewell Concert Film
Disc Size: 44 877 485 332 bytes
Protection: AACS
BD-Java: No
Playlist: 00000.MPLS
Size: 41 364 547 584 bytes
Length: 3:03:09.770
Total Bitrate: 30,11 Mbps
Video: MPEG-4 AVC Video / 21996 kbps / 1080p / 23,976 fps / 16:9 / High Profile 4.1
Audio: English / LPCM Audio / 2.0 / 48 kHz / 2304 kbps / 24-bit
Audio: English / DTS-HD Master Audio / 5.1 / 48 kHz / 4294 kbps / 24-bit (DTS Core: 5.1 / 48 kHz / 768 kbps / 24-bit)
********************
PLAYLIST: 00002.MPLS
********************
<--- BEGIN FORUMS PASTE --->
Код:
Код:
Total   Video
Title                                                           Codec   Length  Movie Size      Disc Size       Bitrate Bitrate Main Audio Track                          Secondary Audio Track
-----                                                           ------  ------- --------------  --------------  ------- ------- ------------------                        ---------------------
00002.MPLS                                                      AVC     0:19:43 2 690 660 352   44 877 485 332  18,18   15,00   LPCM 2.0 2304Kbps (48kHz/24-bit)

Код:
Код:
DISC INFO:
Disc Title:     Runrig - The Last Dance. Farewell Concert Film
Disc Size:      44 877 485 332 bytes
Protection:     AACS
BD-Java:        No
BDInfo:         0.5.8
PLAYLIST REPORT:
Name:                   00002.MPLS
Length:                 0:19:43.891 (h:m:s.ms)
Size:                   2 690 660 352 bytes
Total Bitrate:          18,18 Mbps
VIDEO:
Codec                   Bitrate             Description
-----                   -------             -----------
MPEG-4 AVC Video        14999 kbps          1080p / 23,976 fps / 16:9 / High Profile 4.1
AUDIO:
Codec                           Language        Bitrate         Description
-----                           --------        -------         -----------
LPCM Audio                      English         2304 kbps       2.0 / 48 kHz / 2304 kbps / 24-bit
FILES:
Name            Time In         Length          Size            Total Bitrate
----            -------         ------          ----            -------------
00004.M2TS      0:00:00.000     0:19:43.891     2 690 660 352   18 182
CHAPTERS:
Number          Time In         Length          Avg Video Rate  Max 1-Sec Rate  Max 1-Sec Time  Max 5-Sec Rate  Max 5-Sec Time  Max 10Sec Rate  Max 10Sec Time  Avg Frame Size  Max Frame Size  Max Frame Time
------          -------         ------          --------------  --------------  --------------  --------------  --------------  --------------  --------------  --------------  --------------  --------------
1               0:00:00.000     0:07:13.015     16 671 kbps     29 070 kbps     00:04:48.830    23 211 kbps     00:00:00.041    22 742 kbps     00:00:00.000    86 908 bytes    378 941 bytes   00:04:43.199
2               0:07:13.015     0:05:43.968     15 679 kbps     32 039 kbps     00:08:56.327    23 716 kbps     00:08:10.948    22 302 kbps     00:08:10.156    81 744 bytes    346 984 bytes   00:11:57.883
3               0:12:56.984     0:06:46.906     12 645 kbps     32 309 kbps     00:14:38.919    25 754 kbps     00:14:38.752    23 514 kbps     00:14:38.752    65 932 bytes    355 780 bytes   00:16:20.187
STREAM DIAGNOSTICS:
File            PID             Type            Codec           Language                Seconds                 Bitrate                 Bytes           Packets
----            ---             ----            -----           --------                --------------          --------------          -------------   -----
00004.M2TS      4113 (0x1011)   0x1B            AVC                                     1183,724                15 001                  2 219 679 359   12 079 945
00004.M2TS      4352 (0x1100)   0x80            LPCM            eng (English)           1183,724                2 311                   341 908 876     1 894 232

Код:
<---- END FORUMS PASTE ---->
QUICK SUMMARY:
Disc Title: Runrig - The Last Dance. Farewell Concert Film
Disc Size: 44 877 485 332 bytes
Protection: AACS
BD-Java: No
Playlist: 00002.MPLS
Size: 2 690 660 352 bytes
Length: 0:19:43.891
Total Bitrate: 18,18 Mbps
Video: MPEG-4 AVC Video / 14999 kbps / 1080p / 23,976 fps / 16:9 / High Profile 4.1
Audio: English / LPCM Audio / 2.0 / 48 kHz / 2304 kbps / 24-bit
********************
PLAYLIST: 00004.MPLS
********************
<--- BEGIN FORUMS PASTE --->
Код:
Код:
Total   Video
Title                                                           Codec   Length  Movie Size      Disc Size       Bitrate Bitrate Main Audio Track                          Secondary Audio Track
-----                                                           ------  ------- --------------  --------------  ------- ------- ------------------                        ---------------------
00004.MPLS                                                      AVC     0:03:01 411 518 976     44 877 485 332  18,17   14,99   LPCM 2.0 2304Kbps (48kHz/24-bit)

Код:
Код:
DISC INFO:
Disc Title:     Runrig - The Last Dance. Farewell Concert Film
Disc Size:      44 877 485 332 bytes
Protection:     AACS
BD-Java:        No
BDInfo:         0.5.8
PLAYLIST REPORT:
Name:                   00004.MPLS
Length:                 0:03:01.139 (h:m:s.ms)
Size:                   411 518 976 bytes
Total Bitrate:          18,17 Mbps
VIDEO:
Codec                   Bitrate             Description
-----                   -------             -----------
MPEG-4 AVC Video        14992 kbps          1080p / 23,976 fps / 16:9 / High Profile 4.1
AUDIO:
Codec                           Language        Bitrate         Description
-----                           --------        -------         -----------
LPCM Audio                      English         2304 kbps       2.0 / 48 kHz / 2304 kbps / 24-bit
FILES:
Name            Time In         Length          Size            Total Bitrate
----            -------         ------          ----            -------------
00006.M2TS      0:00:00.000     0:03:01.139     411 518 976     18 175
CHAPTERS:
Number          Time In         Length          Avg Video Rate  Max 1-Sec Rate  Max 1-Sec Time  Max 5-Sec Rate  Max 5-Sec Time  Max 10Sec Rate  Max 10Sec Time  Avg Frame Size  Max Frame Size  Max Frame Time
------          -------         ------          --------------  --------------  --------------  --------------  --------------  --------------  --------------  --------------  --------------  --------------
1               0:00:00.000     0:03:01.139     14 992 kbps     35 727 kbps     00:02:04.374    30 615 kbps     00:02:08.169    29 288 kbps     00:02:01.746    78 162 bytes    639 094 bytes   00:02:07.252
STREAM DIAGNOSTICS:
File            PID             Type            Codec           Language                Seconds                 Bitrate                 Bytes           Packets
----            ---             ----            -----           --------                --------------          --------------          -------------   -----
00006.M2TS      4113 (0x1011)   0x1B            AVC                                     180,972                 15 006                  339 455 978     1 847 402
00006.M2TS      4352 (0x1100)   0x80            LPCM            eng (English)           180,972                 2 313                   52 313 232      289 824

Код:
<---- END FORUMS PASTE ---->
QUICK SUMMARY:
Disc Title: Runrig - The Last Dance. Farewell Concert Film
Disc Size: 44 877 485 332 bytes
Protection: AACS
BD-Java: No
Playlist: 00004.MPLS
Size: 411 518 976 bytes
Length: 0:03:01.139
Total Bitrate: 18,17 Mbps
Video: MPEG-4 AVC Video / 14992 kbps / 1080p / 23,976 fps / 16:9 / High Profile 4.1
Audio: English / LPCM Audio / 2.0 / 48 kHz / 2304 kbps / 24-bit
********************
PLAYLIST: 00003.MPLS
********************
<--- BEGIN FORUMS PASTE --->
Код:
Код:
Total   Video
Title                                                           Codec   Length  Movie Size      Disc Size       Bitrate Bitrate Main Audio Track                          Secondary Audio Track
-----                                                           ------  ------- --------------  --------------  ------- ------- ------------------                        ---------------------
00003.MPLS                                                      AVC     0:01:15 169 715 712     44 877 485 332  17,94   14,79   LPCM 2.0 2304Kbps (48kHz/24-bit)

Код:
Код:
DISC INFO:
Disc Title:     Runrig - The Last Dance. Farewell Concert Film
Disc Size:      44 877 485 332 bytes
Protection:     AACS
BD-Java:        No
BDInfo:         0.5.8
PLAYLIST REPORT:
Name:                   00003.MPLS
Length:                 0:01:15.700 (h:m:s.ms)
Size:                   169 715 712 bytes
Total Bitrate:          17,94 Mbps
VIDEO:
Codec                   Bitrate             Description
-----                   -------             -----------
MPEG-4 AVC Video        14794 kbps          1080p / 23,976 fps / 16:9 / High Profile 4.1
AUDIO:
Codec                           Language        Bitrate         Description
-----                           --------        -------         -----------
LPCM Audio                      English         2304 kbps       2.0 / 48 kHz / 2304 kbps / 24-bit
FILES:
Name            Time In         Length          Size            Total Bitrate
----            -------         ------          ----            -------------
00005.M2TS      0:00:00.000     0:01:14.699     169 691 136     18 173
00012.M2TS      0:01:14.699     0:00:01.000     24 576          196
CHAPTERS:
Number          Time In         Length          Avg Video Rate  Max 1-Sec Rate  Max 1-Sec Time  Max 5-Sec Rate  Max 5-Sec Time  Max 10Sec Rate  Max 10Sec Time  Avg Frame Size  Max Frame Size  Max Frame Time
------          -------         ------          --------------  --------------  --------------  --------------  --------------  --------------  --------------  --------------  --------------  --------------
1               0:00:00.000     0:01:15.700     14 794 kbps     34 538 kbps     00:00:56.848    28 531 kbps     00:00:18.101    24 035 kbps     00:00:18.101    77 129 bytes    325 343 bytes   00:00:18.143
STREAM DIAGNOSTICS:
File            PID             Type            Codec           Language                Seconds                 Bitrate                 Bytes           Packets
----            ---             ----            -----           --------                --------------          --------------          -------------   -----
00005.M2TS      4113 (0x1011)   0x1B            AVC                                     74,533                  15 024                  139 976 654     761 752
00005.M2TS      4352 (0x1100)   0x80            LPCM            eng (English)           74,533                  2 316                   21 573 360      119 520
00012.M2TS      4113 (0x1011)   0x1B            AVC                                     0,876                   107                     11 769          72

Код:
<---- END FORUMS PASTE ---->
QUICK SUMMARY:
Disc Title: Runrig - The Last Dance. Farewell Concert Film
Disc Size: 44 877 485 332 bytes
Protection: AACS
BD-Java: No
Playlist: 00003.MPLS
Size: 169 715 712 bytes
Length: 0:01:15.700
Total Bitrate: 17,94 Mbps
Video: MPEG-4 AVC Video / 14794 kbps / 1080p / 23,976 fps / 16:9 / High Profile 4.1
Audio: English / LPCM Audio / 2.0 / 48 kHz / 2304 kbps / 24-bit


Правила, инструкции, FAQ!!!
Торрент  Добавлен [10 сен 2019, 20:23] Скачать торрент Магнет ссылка
Скачать торрент
[ Размер 213.3 КБ / Просмотров 9 ]

Статус
Проверен 
 
Размер  41.8 ГБ
Приватный: Нет (DHT включён)
.torrent скачан  1
Как залить торрент? | Как скачать Torrent? | Ошибка в торренте? Качайте магнет  


     Отправить личное сообщение
   
Страница 1 из 1


Сейчас этот форум просматривают: нет зарегистрированных пользователей и гости: 0


Вы не можете начинать темы
Вы не можете отвечать на сообщения
Вы не можете редактировать свои сообщения
Вы не можете удалять свои сообщения
Вы не можете добавлять вложения

Перейти:  
Ресурс не предоставляет электронные версии произведений, а занимается лишь коллекционированием и каталогизацией ссылок, присылаемых и публикуемых на форуме нашими читателями. Если вы являетесь правообладателем какого-либо представленного материала и не желаете чтобы ссылка на него находилась в нашем каталоге, свяжитесь с нами и мы незамедлительно удалим её. Файлы для обмена на трекере предоставлены пользователями сайта, и администрация не несёт ответственности за их содержание. Просьба не заливать файлы, защищенные авторскими правами, а также файлы нелегального содержания!