Начать новую тему Ответить на тему
Статистика раздачи
Размер: 1.29 ГБ | Добавлен: 05 сен 2015, 23:18 | Скачали: 22
Сидеров: 649  [0 байт/сек]    Личеров: 26  [0 байт/сек]
Пред. тема | След. тема 

Автор
Сообщение

СообщениеДобавлено: 05 сен 2015, 23:18 

Ответить с цитатой 

VA - Simply dinner jazz (2008) 4CD

Страна-производитель диска: UK
Жанр: Jazz, Smooth Jazz, Contemporary Jazz, Crossover Jazz, Easy Listening
Год издания: 2008
Издатель (лейбл): Union Square Music
Номер по каталогу: SIMPLYCD055

Аудиокодек: FLAC (*.flac)
Тип рипа: image+.cue
Битрейт аудио: lossless
Источник (релизер): Собственный рип
Наличие сканов: Да, полные
Продолжительность: 04:23:47


Описание:Возвращение забытых мелодий джаза - так можно интерпретировать подзаголовок этого бокс сета. И, действительно, из 20-30-х годов прошлого столетия возвращены из небытия гениальные произведения родоначальников настоящего джаза.
Серия Simply, которую выпускает Union Square Music отличается вдумчивым подходом к выбираемому материалу. Зачастую здесь можно найти треки, которые нигде больше не сыщешь.


Треклист:
Список альбомов:
Disc 1 Aperitifs
Disc 2 Canapes
Disc 3 Entrees
Disc 4 Desserts

Трeклиcт:
01. Lester Young - Blue Lester (3:26)
02. Red Garland - You Better Go Now (4:26)
03. Charlie Parker - How Deep Is the Ocean (3:32)
04. Pat Martino - Willow (6:13)
05. Ejq - Easy Dreaming (4:35)
06. Stan Getz - Don't Worry 'Bout Me (2:40)
07. Sarah Vaughan - Lover Man (Oh Where Can You Be?) (3:27)
08. Richie Cole - Malibu Breeze (6:03)
09. Miles Davis - Milestones (2:39)
10. Charles Mingus - Body and Soul (3:11)
11. Joanna Eden - The Nearness of You (5:00)
12. Hank Mobley - Blues Number Two (4:58)
13. Eliane Elias - Chan's Song (6:22)
14. The Brecon Brothers - Walk On By (4:13)
Продoлжитeльность -01:00:45
Код:
Код:
REM GENRE Jazz
REM DATE 2008
REM DISCID AB0E3C0E
REM COMMENT "ExactAudioCopy v1.0b3"
PERFORMER "Various Artists"
TITLE "Simply Dinner Jazz"
FILE "Various Artists - Simply Dinner Jazz (Disc 1 Aperitifs).flac" WAVE
  TRACK 01 AUDIO
    TITLE "Blue Lester"
    PERFORMER "Lester Young"
    INDEX 01 00:00:00
  TRACK 02 AUDIO
    TITLE "You Better Go Now"
    PERFORMER "Red Garland"
    INDEX 00 03:23:51
    INDEX 01 03:26:34
  TRACK 03 AUDIO
    TITLE "How Deep Is the Ocean"
    PERFORMER "Charlie Parker"
    INDEX 00 07:49:46
    INDEX 01 07:52:29
  TRACK 04 AUDIO
    TITLE "Willow"
    PERFORMER "Pat Martino"
    INDEX 00 11:21:40
    INDEX 01 11:24:23
  TRACK 05 AUDIO
    TITLE "Easy Dreaming"
    PERFORMER "Ejq"
    INDEX 00 17:34:45
    INDEX 01 17:37:28
  TRACK 06 AUDIO
    TITLE "Don't Worry 'Bout Me"
    PERFORMER "Stan Getz"
    INDEX 00 22:09:32
    INDEX 01 22:12:15
  TRACK 07 AUDIO
    TITLE "Lover Man (Oh Where Can You Be?)"
    PERFORMER "Sarah Vaughan"
    INDEX 00 24:49:24
    INDEX 01 24:52:07
  TRACK 08 AUDIO
    TITLE "Malibu Breeze"
    PERFORMER "Richie Cole"
    INDEX 00 28:16:26
    INDEX 01 28:19:09
  TRACK 09 AUDIO
    TITLE "Milestones"
    PERFORMER "Miles Davis"
    INDEX 00 34:19:25
    INDEX 01 34:22:08
  TRACK 10 AUDIO
    TITLE "Body and Soul"
    PERFORMER "Charles Mingus"
    INDEX 00 36:58:44
    INDEX 01 37:01:27
  TRACK 11 AUDIO
    TITLE "The Nearness of You"
    PERFORMER "Joanna Eden"
    INDEX 00 40:09:58
    INDEX 01 40:12:35
  TRACK 12 AUDIO
    TITLE "Blues Number Two"
    PERFORMER "Hank Mobley"
    INDEX 00 45:09:14
    INDEX 01 45:12:04
  TRACK 13 AUDIO
    TITLE "Chan's Song"
    PERFORMER "Eliane Elias"
    INDEX 00 50:07:23
    INDEX 01 50:10:07
  TRACK 14 AUDIO
    TITLE "Walk On By"
    PERFORMER "The Brecon Brothers"
    INDEX 00 56:29:26
    INDEX 01 56:32:09
Код:
Код:
Exact Audio Copy V1.0 beta 3 from 29. August 2011

EAC extraction logfile from 29. July 2014, 21:09

Various Artists / Simply Dinner Jazz

Used drive  : PIONEER BD-RW   BDR-206   Adapter: 1  ID: 0

Read mode               : Secure
Utilize accurate stream : Yes
Defeat audio cache      : Yes
Make use of C2 pointers : No

Read offset correction                      : 667
Overread into Lead-In and Lead-Out          : No
Fill up missing offset samples with silence : Yes
Delete leading and trailing silent blocks   : No
Null samples used in CRC calculations       : Yes
Used interface                              : Installed external ASPI interface

Used output format              : User Defined Encoder
Selected bitrate                : 1024 kBit/s
Quality                         : High
Add ID3 tag                     : No
Command line compressor         : C:\Program Files (x86)\Exact Audio Copy\Flac\flac.exe
Additional command line options : -8 -V -T "ARTIST=%artist%" -T "TITLE=%title%" -T "ALBUM=%albumtitle%" -T "DATE=%year%" -T "TRACKNUMBER=%tracknr%" -T "GENRE=%genre%" -T "COMMENT=%comment%" -T "BAND=%albuminterpret%" -T "ALBUMARTIST=%albuminterpret%" -T "COMPOSER=%composer%" %haslyrics%--tag-from-file=LYRICS="%lyricsfile%"%haslyrics% -T "DISCNUMBER=%cdnumber%" -T "TOTALDISCS=%totalcds%" -T "TOTALTRACKS=%numtracks%" %hascover%--picture="%coverfile%"%hascover% %source% -o %dest%

TOC of the extracted CD

     Track |   Start  |  Length  | Start sector | End sector
    ---------------------------------------------------------
        1  |  0:00.00 |  3:26.34 |         0    |    15483
        2  |  3:26.34 |  4:25.70 |     15484    |    35428
        3  |  7:52.29 |  3:31.69 |     35429    |    51322
        4  | 11:24.23 |  6:13.05 |     51323    |    79302
        5  | 17:37.28 |  4:34.62 |     79303    |    99914
        6  | 22:12.15 |  2:39.67 |     99915    |   111906
        7  | 24:52.07 |  3:27.02 |    111907    |   127433
        8  | 28:19.09 |  6:02.74 |    127434    |   154657
        9  | 34:22.08 |  2:39.19 |    154658    |   166601
       10  | 37:01.27 |  3:11.08 |    166602    |   180934
       11  | 40:12.35 |  4:59.44 |    180935    |   203403
       12  | 45:12.04 |  4:58.03 |    203404    |   225756
       13  | 50:10.07 |  6:22.02 |    225757    |   254408
       14  | 56:32.09 |  4:12.61 |    254409    |   273369

Range status and errors

Selected range

     Filename D:\Jazz and Blues\VA - Simply dinner jazz 4CD (2008)(Flac+.cue)\Disc 1 Apéritifs\Various Artists - Simply Dinner Jazz (Disc 1 Apéritifs).wav

     Peak level 98.5 %
     Extraction speed 7.7 X
     Range quality 100.0 %
     Test CRC 7CC40E8C
     Copy CRC 7CC40E8C
     Copy OK

No errors occurred

AccurateRip summary

Track  1  cannot be verified as accurate (confidence 4)  [C6E12C7C], AccurateRip returned [EABA28C5]  (AR v2)
Track  2  cannot be verified as accurate (confidence 4)  [BC86DF90], AccurateRip returned [1606EFBC]  (AR v2)
Track  3  cannot be verified as accurate (confidence 4)  [75BD9784], AccurateRip returned [19AA83B6]  (AR v2)
Track  4  cannot be verified as accurate (confidence 4)  [28D89C65], AccurateRip returned [6C2AC1EE]  (AR v2)
Track  5  cannot be verified as accurate (confidence 4)  [1B38A61D], AccurateRip returned [BDAD22A5]  (AR v2)
Track  6  cannot be verified as accurate (confidence 4)  [FC13553C], AccurateRip returned [A992234D]  (AR v2)
Track  7  cannot be verified as accurate (confidence 4)  [EABCC0B1], AccurateRip returned [FC366833]  (AR v2)
Track  8  cannot be verified as accurate (confidence 4)  [C2AF2614], AccurateRip returned [E0BC40D4]  (AR v2)
Track  9  cannot be verified as accurate (confidence 4)  [C710F5A1], AccurateRip returned [9EB709B0]  (AR v2)
Track 10  cannot be verified as accurate (confidence 4)  [06CDA6ED], AccurateRip returned [850586A7]  (AR v2)
Track 11  cannot be verified as accurate (confidence 4)  [0935ED11], AccurateRip returned [377CD687]  (AR v2)
Track 12  cannot be verified as accurate (confidence 4)  [4DBA8959], AccurateRip returned [C587E09A]  (AR v2)
Track 13  cannot be verified as accurate (confidence 4)  [842418F0], AccurateRip returned [40A18292]  (AR v2)
Track 14  cannot be verified as accurate (confidence 4)  [A143D1C2], AccurateRip returned [1E26AEE2]  (AR v2)

No tracks could be verified as accurate
You may have a different pressing from the one(s) in the database

End of status report

---- CUETools DB Plugin V2.1.3

[CTDB TOCID: 4sjEiv1ozQ49Rj46lsaInW8Nf_g-] found, Submit result: already submitted
[c93f8d8f] (5/5) Accurately ripped

==== Log checksum 8CE841CB6296BB3583C34FAA753ADA7BD45915960C70A1DA2D4F3D7C4870112B ====
Код:
Код:
-----------------------

DON'T MODIFY THIS FILE

-----------------------

PERFORMER: auCDtect Task Manager, ver. 1.6.0 RC1 build 1.6.0.1
Copyright (c) 2008-2010 y-soft. All rights reserved
http:/y-soft.org

ANALYZER: auCDtect: CD records authenticity detector, version 0.8.2
Copyright (c) 2004 Oleg Berngardt. All rights reserved.
Copyright (c) 2004 Alexander Djourik. All rights reserved.

FILE: Various Artists - Simply Dinner Jazz (Disc 1 Apéritifs).flac
  Size: 288920855 Hash: A8E855AB72F4F787D7C412689CE90872 Accuracy: -m0
  Conclusion: CDDA 100%
  Signature: 9460D4AEFBA4C9FD640C7F7F5EFED522816D50DA

Трeклиcт:
01. Woody Shaw - Imagination (7:28)
02. Art Pepper - These Foolish Things (Remind Me Of You) (2:41)
03. Art Blakey - Mirage (4:44)
04. EJQ - Summertime (4:45)
05. Dexter Gordon - I Can't Escape From You (3:20)
06. The Brecon Brothers - Take Five (4:12)
07. Milt Jackson - Blues Mood (4:23)
08. Sadao Watanabe - My Romance (3:54)
09. Erroll Garner - Moonglow (2:39)
10. Ritmo Alegria - Flautero Y Yo (5:24)
11. Simply Dinner Jazz [Disc 2] - Have You Met Miss Jones? (3:23)
12. Kenny Burrell - My One And Only Love (6:18)
13. 2Play - Killing Me Softly With His Song (4:23)
14. Hank Jones - Ruby, My Dear (3:54)
Продoлжитeльность -01:01:27
Код:
Код:
REM GENRE Jazz
REM DATE 2008
REM DISCID CD0E660E
REM COMMENT "ExactAudioCopy v1.0b3"
PERFORMER "Various Artists"
TITLE "Simply Dinner Jazz [Disc 2 Canapes]"
FILE "Various Artists - Simply Dinner Jazz [Disc 2 Canapes].flac" WAVE
  TRACK 01 AUDIO
    TITLE "Imagination"
    PERFORMER "Woody Shaw"
    INDEX 01 00:00:00
  TRACK 02 AUDIO
    TITLE "These Foolish Things (Remind Me Of You)"
    PERFORMER "Art Pepper"
    INDEX 00 07:24:67
    INDEX 01 07:27:52
  TRACK 03 AUDIO
    TITLE "Mirage"
    PERFORMER "Art Blakey"
    INDEX 00 10:06:07
    INDEX 01 10:08:67
  TRACK 04 AUDIO
    TITLE "Summertime"
    PERFORMER "EJQ"
    INDEX 00 14:49:59
    INDEX 01 14:52:44
  TRACK 05 AUDIO
    TITLE "I Can't Escape From You"
    PERFORMER "Dexter Gordon"
    INDEX 00 19:34:65
    INDEX 01 19:37:50
  TRACK 06 AUDIO
    TITLE "Take Five"
    PERFORMER "The Brecon Brothers"
    INDEX 00 22:54:30
    INDEX 01 22:57:15
  TRACK 07 AUDIO
    TITLE "Blues Mood"
    PERFORMER "Milt Jackson"
    INDEX 00 27:06:66
    INDEX 01 27:09:50
  TRACK 08 AUDIO
    TITLE "My Romance"
    PERFORMER "Sadao Watanabe"
    INDEX 00 31:29:21
    INDEX 01 31:32:21
  TRACK 09 AUDIO
    TITLE "Moonglow"
    PERFORMER "Erroll Garner"
    INDEX 00 35:23:20
    INDEX 01 35:26:24
  TRACK 10 AUDIO
    TITLE "Flautero Y Yo"
    PERFORMER "Ritmo Alegria"
    INDEX 00 38:02:00
    INDEX 01 38:05:04
  TRACK 11 AUDIO
    TITLE "Have You Met Miss Jones?"
    PERFORMER "Simply Dinner Jazz [Disc 2]"
    INDEX 00 43:26:05
    INDEX 01 43:28:69
  TRACK 12 AUDIO
    TITLE "My One And Only Love"
    PERFORMER "Kenny Burrell"
    INDEX 00 46:49:15
    INDEX 01 46:52:01
  TRACK 13 AUDIO
    TITLE "Killing Me Softly With His Song"
    PERFORMER "2Play"
    INDEX 00 53:07:47
    INDEX 01 53:10:32
  TRACK 14 AUDIO
    TITLE "Ruby, My Dear"
    PERFORMER "Hank Jones"
    INDEX 00 57:30:11
    INDEX 01 57:32:71
Код:
Код:
Exact Audio Copy V1.0 beta 3 from 29. August 2011

EAC extraction logfile from 19. July 2014, 1:15

Various Artists / Simply Dinner Jazz [Disc 2 Canapes]

Used drive  : PIONEER BD-RW   BDR-206   Adapter: 5  ID: 0

Read mode               : Secure
Utilize accurate stream : Yes
Defeat audio cache      : Yes
Make use of C2 pointers : No

Read offset correction                      : 667
Overread into Lead-In and Lead-Out          : No
Fill up missing offset samples with silence : Yes
Delete leading and trailing silent blocks   : No
Null samples used in CRC calculations       : Yes
Used interface                              : Native Win32 interface for Win NT & 2000

Used output format              : User Defined Encoder
Selected bitrate                : 1024 kBit/s
Quality                         : High
Add ID3 tag                     : No
Command line compressor         : C:\Program Files (x86)\Exact Audio Copy\Flac\flac.exe
Additional command line options : -8 -V -T "ARTIST=%artist%" -T "TITLE=%title%" -T "ALBUM=%albumtitle%" -T "DATE=%year%" -T "TRACKNUMBER=%tracknr%" -T "GENRE=%genre%" -T "COMMENT=%comment%" -T "BAND=%albuminterpret%" -T "ALBUMARTIST=%albuminterpret%" -T "COMPOSER=%composer%" %haslyrics%--tag-from-file=LYRICS="%lyricsfile%"%haslyrics% -T "DISCNUMBER=%cdnumber%" -T "TOTALDISCS=%totalcds%" -T "TOTALTRACKS=%numtracks%" %hascover%--picture="%coverfile%"%hascover% %source% -o %dest%

TOC of the extracted CD

     Track |   Start  |  Length  | Start sector | End sector
    ---------------------------------------------------------
        1  |  0:00.00 |  7:27.52 |         0    |    33576
        2  |  7:27.52 |  2:41.15 |     33577    |    45666
        3  | 10:08.67 |  4:43.52 |     45667    |    66943
        4  | 14:52.44 |  4:45.06 |     66944    |    88324
        5  | 19:37.50 |  3:19.40 |     88325    |   103289
        6  | 22:57.15 |  4:12.35 |    103290    |   122224
        7  | 27:09.50 |  4:22.46 |    122225    |   141920
        8  | 31:32.21 |  3:54.03 |    141921    |   159473
        9  | 35:26.24 |  2:38.55 |    159474    |   171378
       10  | 38:05.04 |  5:23.65 |    171379    |   195668
       11  | 43:28.69 |  3:23.07 |    195669    |   210900
       12  | 46:52.01 |  6:18.31 |    210901    |   239281
       13  | 53:10.32 |  4:22.39 |    239282    |   258970
       14  | 57:32.71 |  3:53.67 |    258971    |   276512

Range status and errors

Selected range

     Filename D:\Jazz and Blues\VA - Simply dinner jazz 4CD (2008)(Flac+.cue)\Disc 2 Canapes\Various Artists - Simply Dinner Jazz [Disc 2 Canapes].wav

     Peak level 99.4 %
     Extraction speed 7.7 X
     Range quality 99.9 %
     Test CRC 22347093
     Copy CRC 22347093
     Copy OK

No errors occurred

AccurateRip summary

Track  1  accurately ripped (confidence 3)  [9F9F519A]  (AR v2)
Track  2  accurately ripped (confidence 3)  [AA03BC24]  (AR v2)
Track  3  accurately ripped (confidence 3)  [021BC6F3]  (AR v2)
Track  4  accurately ripped (confidence 3)  [1DBB3DAF]  (AR v2)
Track  5  accurately ripped (confidence 3)  [DE61DE10]  (AR v2)
Track  6  accurately ripped (confidence 3)  [9D065F96]  (AR v2)
Track  7  accurately ripped (confidence 3)  [ADA4393E]  (AR v2)
Track  8  accurately ripped (confidence 3)  [B4693ACF]  (AR v2)
Track  9  accurately ripped (confidence 3)  [EEABDB64]  (AR v2)
Track 10  accurately ripped (confidence 3)  [2406F2C2]  (AR v2)
Track 11  accurately ripped (confidence 3)  [B2EC6843]  (AR v2)
Track 12  accurately ripped (confidence 3)  [69C9B986]  (AR v2)
Track 13  accurately ripped (confidence 3)  [E3CFD753]  (AR v2)
Track 14  accurately ripped (confidence 3)  [CEBFCFBE]  (AR v2)

All tracks accurately ripped

End of status report

---- CUETools DB Plugin V2.1.3

[CTDB TOCID: DICaP3V583Oyo1SNT04sw1voWqs-] found, Submit result: DICaP3V583Oyo1SNT04sw1voWqs- has been confirmed
[71132e57] (4/4) Accurately ripped

==== Log checksum CD94ECC0E8621CFEB120DEAC75C2D30D7AF2B6676238D04C07275F3D9E5CA536 ====
Код:
Код:
-----------------------

DON'T MODIFY THIS FILE

-----------------------

PERFORMER: auCDtect Task Manager, ver. 1.6.0 RC1 build 1.6.0.1
Copyright (c) 2008-2010 y-soft. All rights reserved
http:/y-soft.org

ANALYZER: auCDtect: CD records authenticity detector, version 0.8.2
Copyright (c) 2004 Oleg Berngardt. All rights reserved.
Copyright (c) 2004 Alexander Djourik. All rights reserved.

FILE: Various Artists - Simply Dinner Jazz [Disc 2 Canapes].flac
  Size: 314735568 Hash: BBA8A481647387C74AFF7400D085CD76 Accuracy: -m0
  Conclusion: CDDA 100%
  Signature: 0E8DA2DCDC9D4CC0179BDC8383CF34E8791BD221

Трeклиcт:
01. Dizzy Gillespie - Alone Together (4:46)
02. Count Basie - Li'l Darlin' (5:03)
03. Sonny Stitt - Angel Eyes (5:07)
04. Joanna Eden - Don't Know Why (3:20)
05. Houston Person - Everything Happens To Me (6:07)
06. Donald Byrd - That's All There Is To Love (5:48)
07. 2Play - Morning Dance (4:21)
08. Cannonball Adderley - Willow Weep For Me (6:23)
09. Jazz Urbaine - What The World Needs Now Is Love (3:55)
10. Larry Coryell - Sophisticated Lady (5:07)
11. Rickey Ford - Chelsea Bridge (4:27)
12. Bobby Hutcherson - Good Bait (6:13)
13. Al Cohn & Zoot Sims - Body And Soul (5:43)
14. EJQ - What A Wonderful World (4:44)
Продoлжитeльность -01:11:06
Код:
Код:
REM GENRE Jazz
REM DATE 2008
REM DISCID D610AA0E
REM COMMENT "ExactAudioCopy v1.0b3"
PERFORMER "Various Artists"
TITLE "Simply dinner jazz (Disc 3 Entrees)"
FILE "Various Artists - Simply dinner jazz (Disc 3 Entrees).flac" WAVE
  TRACK 01 AUDIO
    TITLE "Alone Together"
    PERFORMER "Dizzy Gillespie"
    INDEX 01 00:00:00
  TRACK 02 AUDIO
    TITLE "Li'l Darlin'"
    PERFORMER "Count Basie"
    INDEX 00 04:43:52
    INDEX 01 04:46:35
  TRACK 03 AUDIO
    TITLE "Angel Eyes"
    PERFORMER "Sonny Stitt"
    INDEX 00 09:46:15
    INDEX 01 09:48:73
  TRACK 04 AUDIO
    TITLE "Don't Know Why"
    PERFORMER "Joanna Eden"
    INDEX 00 14:53:40
    INDEX 01 14:56:23
  TRACK 05 AUDIO
    TITLE "Everything Happens To Me"
    PERFORMER "Houston Person"
    INDEX 00 18:13:48
    INDEX 01 18:16:31
  TRACK 06 AUDIO
    TITLE "That's All There Is To Love"
    PERFORMER "Donald Byrd"
    INDEX 00 24:20:16
    INDEX 01 24:22:74
  TRACK 07 AUDIO
    TITLE "Morning Dance"
    PERFORMER "2Play"
    INDEX 00 30:08:37
    INDEX 01 30:11:19
  TRACK 08 AUDIO
    TITLE "Willow Weep For Me"
    PERFORMER "Cannonball Adderley"
    INDEX 00 34:29:71
    INDEX 01 34:32:54
  TRACK 09 AUDIO
    TITLE "What The World Needs Now Is Love"
    PERFORMER "Jazz Urbaine"
    INDEX 00 40:53:29
    INDEX 01 40:56:12
  TRACK 10 AUDIO
    TITLE "Sophisticated Lady"
    PERFORMER "Larry Coryell"
    INDEX 00 44:48:62
    INDEX 01 44:51:45
  TRACK 11 AUDIO
    TITLE "Chelsea Bridge"
    PERFORMER "Rickey Ford"
    INDEX 00 49:56:15
    INDEX 01 49:58:62
  TRACK 12 AUDIO
    TITLE "Good Bait"
    PERFORMER "Bobby Hutcherson"
    INDEX 00 54:22:34
    INDEX 01 54:25:37
  TRACK 13 AUDIO
    TITLE "Body And Soul"
    PERFORMER "Al Cohn & Zoot Sims"
    INDEX 00 60:36:03
    INDEX 01 60:38:66
  TRACK 14 AUDIO
    TITLE "What A Wonderful World"
    PERFORMER "EJQ"
    INDEX 00 66:19:08
    INDEX 01 66:21:66
Код:
Код:
Exact Audio Copy V1.0 beta 3 from 29. August 2011

EAC extraction logfile from 19. July 2014, 7:34

Various Artists / Simply dinner jazz (Disc 3 Entrées)

Used drive  : PIONEER BD-RW   BDR-206   Adapter: 5  ID: 0

Read mode               : Secure
Utilize accurate stream : Yes
Defeat audio cache      : Yes
Make use of C2 pointers : No

Read offset correction                      : 667
Overread into Lead-In and Lead-Out          : No
Fill up missing offset samples with silence : Yes
Delete leading and trailing silent blocks   : No
Null samples used in CRC calculations       : Yes
Used interface                              : Native Win32 interface for Win NT & 2000

Used output format              : User Defined Encoder
Selected bitrate                : 1024 kBit/s
Quality                         : High
Add ID3 tag                     : No
Command line compressor         : C:\Program Files (x86)\Exact Audio Copy\Flac\flac.exe
Additional command line options : -8 -V -T "ARTIST=%artist%" -T "TITLE=%title%" -T "ALBUM=%albumtitle%" -T "DATE=%year%" -T "TRACKNUMBER=%tracknr%" -T "GENRE=%genre%" -T "COMMENT=%comment%" -T "BAND=%albuminterpret%" -T "ALBUMARTIST=%albuminterpret%" -T "COMPOSER=%composer%" %haslyrics%--tag-from-file=LYRICS="%lyricsfile%"%haslyrics% -T "DISCNUMBER=%cdnumber%" -T "TOTALDISCS=%totalcds%" -T "TOTALTRACKS=%numtracks%" %hascover%--picture="%coverfile%"%hascover% %source% -o %dest%

TOC of the extracted CD

     Track |   Start  |  Length  | Start sector | End sector
    ---------------------------------------------------------
        1  |  0:00.00 |  4:46.35 |         0    |    21484
        2  |  4:46.35 |  5:02.38 |     21485    |    44172
        3  |  9:48.73 |  5:07.25 |     44173    |    67222
        4  | 14:56.23 |  3:20.08 |     67223    |    82230
        5  | 18:16.31 |  6:06.43 |     82231    |   109723
        6  | 24:22.74 |  5:48.20 |    109724    |   135843
        7  | 30:11.19 |  4:21.35 |    135844    |   155453
        8  | 34:32.54 |  6:23.33 |    155454    |   184211
        9  | 40:56.12 |  3:55.33 |    184212    |   201869
       10  | 44:51.45 |  5:07.17 |    201870    |   224911
       11  | 49:58.62 |  4:26.50 |    224912    |   244911
       12  | 54:25.37 |  6:13.29 |    244912    |   272915
       13  | 60:38.66 |  5:43.00 |    272916    |   298640
       14  | 66:21.66 |  4:44.09 |    298641    |   319949

Range status and errors

Selected range

     Filename D:\Jazz and Blues\VA - Simply dinner jazz 4CD (2008)(Flac+.cue)\Disc 3 Entrées\Various Artists - Simply dinner jazz (Disc 3 Entrées).wav

     Peak level 98.8 %
     Extraction speed 1.3 X
     Range quality 100.0 %
     Test CRC B756404A
     Copy CRC B756404A
     Copy OK

No errors occurred

AccurateRip summary

Track  1  cannot be verified as accurate (confidence 4)  [C30AE385], AccurateRip returned [2F9DA5BC]  (AR v2)
Track  2  cannot be verified as accurate (confidence 4)  [9D3F607A], AccurateRip returned [A9DBD1F6]  (AR v2)
Track  3  cannot be verified as accurate (confidence 4)  [945C8928], AccurateRip returned [58B7093B]  (AR v2)
Track  4  cannot be verified as accurate (confidence 4)  [9483B4B0], AccurateRip returned [0B17D9DE]  (AR v2)
Track  5  cannot be verified as accurate (confidence 4)  [DD23BFFA], AccurateRip returned [07BC9ECC]  (AR v2)
Track  6  cannot be verified as accurate (confidence 4)  [D797E86A], AccurateRip returned [A1F67877]  (AR v2)
Track  7  cannot be verified as accurate (confidence 4)  [0CFA9BC3], AccurateRip returned [70BC080F]  (AR v2)
Track  8  cannot be verified as accurate (confidence 4)  [19DF5E71], AccurateRip returned [93A12B15]  (AR v2)
Track  9  cannot be verified as accurate (confidence 4)  [114403F7], AccurateRip returned [4E4F2F86]  (AR v2)
Track 10  cannot be verified as accurate (confidence 4)  [694913CF], AccurateRip returned [8130D07A]  (AR v2)
Track 11  cannot be verified as accurate (confidence 4)  [A712C2A2], AccurateRip returned [7930F701]  (AR v2)
Track 12  cannot be verified as accurate (confidence 4)  [DBC953C8], AccurateRip returned [07C02428]  (AR v2)
Track 13  cannot be verified as accurate (confidence 4)  [7303016F], AccurateRip returned [A420324B]  (AR v2)
Track 14  cannot be verified as accurate (confidence 4)  [EFCFB7A4], AccurateRip returned [6C571185]  (AR v2)

No tracks could be verified as accurate
You may have a different pressing from the one(s) in the database

End of status report

---- CUETools DB Plugin V2.1.3

[CTDB TOCID: _gCfxi2M5POnXc0daBXiib8cFWg-] found, Submit result: _gCfxi2M5POnXc0daBXiib8cFWg- has been confirmed
[4c0c23b9] (3/3) Accurately ripped

==== Log checksum 9C86780BCA897F26C7BAD1632E5F3BD5B2571142F0987DFAF7E95ED197D4F725 ====
Код:
Код:
-----------------------

DON'T MODIFY THIS FILE

-----------------------

PERFORMER: auCDtect Task Manager, ver. 1.6.0 RC1 build 1.6.0.1
Copyright (c) 2008-2010 y-soft. All rights reserved
http:/y-soft.org

ANALYZER: auCDtect: CD records authenticity detector, version 0.8.2
Copyright (c) 2004 Oleg Berngardt. All rights reserved.
Copyright (c) 2004 Alexander Djourik. All rights reserved.

FILE: Various Artists - Simply dinner jazz (Disc 3 Entrées).flac
  Size: 367909394 Hash: 3EF96542655A3849F05BD2901619F468 Accuracy: -m0
  Conclusion: CDDA 100%
  Signature: C5152D64E55B9BE8129BFF45913D9733637D9AF2

Трeклиcт:
01. Phil Woods - The Summer Knows (7:18)
02. Curtis Fuller - Arabia (6:29)
03. Yusef Lateef - Stella By Starlight (5:53)
04. EJQ - Stride Out (3:30)
05. Cedar Walton - As Long As There's Music (6:25)
06. The Brecon Brothers - Cantaloupe Island (4:59)
07. Mark Murphy - Time On My Hands (4:08)
08. David 'Fathead' Newman - One For My Baby (And One More For The Road) (5:55)
09. Wallace Roney - Blue In Green (5:45)
10. Jazz Urbaine - - Do You Know The Way To San Jose (2:56)
11. Russell Gunn - Fly Me To The Moon (5:34)
12. Jimmy Scott - I'm Through With Love (2:33)
13. Cecil Brooks III - Sunshine (5:19)
14. Grupo Cabana - Wave (Vou te Contar) (3:45)
Продoлжитeльность -01:10:29
Код:
Код:
REM GENRE Jazz
REM DATE 2008
REM DISCID C810840E
REM COMMENT "ExactAudioCopy v1.0b3"
PERFORMER "Various Artists"
TITLE "Simply dinner jazz (CD4 - Desserts)"
FILE "Various Artists - Simply dinner jazz (CD4 - Desserts).flac" WAVE
  TRACK 01 AUDIO
    TITLE "The Summer Knows"
    PERFORMER "Phil Woods"
    INDEX 01 00:00:00
  TRACK 02 AUDIO
    TITLE "Arabia"
    PERFORMER "Curtis Fuller"
    INDEX 00 07:15:23
    INDEX 01 07:18:09
  TRACK 03 AUDIO
    TITLE "Stella By Starlight"
    PERFORMER "Yusef Lateef"
    INDEX 00 13:44:07
    INDEX 01 13:46:67
  TRACK 04 AUDIO
    TITLE "Stride Out"
    PERFORMER "EJQ"
    INDEX 00 19:36:63
    INDEX 01 19:39:49
  TRACK 05 AUDIO
    TITLE "As Long As There's Music"
    PERFORMER "Cedar Walton"
    INDEX 00 23:06:35
    INDEX 01 23:09:20
  TRACK 06 AUDIO
    TITLE "Cantaloupe Island"
    PERFORMER "The Brecon Brothers"
    INDEX 00 29:32:05
    INDEX 01 29:34:44
  TRACK 07 AUDIO
    TITLE "Time On My Hands"
    PERFORMER "Mark Murphy"
    INDEX 00 34:31:10
    INDEX 01 34:33:40
  TRACK 08 AUDIO
    TITLE "One For My Baby (And One More For The Road)"
    PERFORMER "David 'Fathead' Newman"
    INDEX 00 38:39:05
    INDEX 01 38:41:38
  TRACK 09 AUDIO
    TITLE "Blue In Green"
    PERFORMER "Wallace Roney"
    INDEX 00 44:34:01
    INDEX 01 44:36:27
  TRACK 10 AUDIO
    TITLE "Do You Know The Way To San Jose"
    PERFORMER "Jazz Urbaine -"
    INDEX 00 50:19:36
    INDEX 01 50:21:64
  TRACK 11 AUDIO
    TITLE "Fly Me To The Moon"
    PERFORMER "Russell Gunn"
    INDEX 00 53:15:10
    INDEX 01 53:17:56
  TRACK 12 AUDIO
    TITLE "I'm Through With Love"
    PERFORMER "Jimmy Scott"
    INDEX 00 58:49:60
    INDEX 01 58:52:13
  TRACK 13 AUDIO
    TITLE "Sunshine"
    PERFORMER "Cecil Brooks III"
    INDEX 00 61:23:26
    INDEX 01 61:25:32
  TRACK 14 AUDIO
    TITLE "Wave (Vou te Contar)"
    PERFORMER "Grupo Cabana"
    INDEX 00 66:42:18
    INDEX 01 66:44:30
Код:
Код:
Exact Audio Copy V1.0 beta 3 from 29. August 2011

EAC extraction logfile from 19. July 2014, 23:44

Various Artists / Simply dinner jazz (CD4 - Desserts)

Used drive  : PIONEER BD-RW   BDR-206   Adapter: 5  ID: 0

Read mode               : Secure
Utilize accurate stream : Yes
Defeat audio cache      : Yes
Make use of C2 pointers : No

Read offset correction                      : 667
Overread into Lead-In and Lead-Out          : No
Fill up missing offset samples with silence : Yes
Delete leading and trailing silent blocks   : No
Null samples used in CRC calculations       : Yes
Used interface                              : Native Win32 interface for Win NT & 2000

Used output format              : User Defined Encoder
Selected bitrate                : 1024 kBit/s
Quality                         : High
Add ID3 tag                     : No
Command line compressor         : C:\Program Files (x86)\Exact Audio Copy\Flac\flac.exe
Additional command line options : -8 -V -T "ARTIST=%artist%" -T "TITLE=%title%" -T "ALBUM=%albumtitle%" -T "DATE=%year%" -T "TRACKNUMBER=%tracknr%" -T "GENRE=%genre%" -T "COMMENT=%comment%" -T "BAND=%albuminterpret%" -T "ALBUMARTIST=%albuminterpret%" -T "COMPOSER=%composer%" %haslyrics%--tag-from-file=LYRICS="%lyricsfile%"%haslyrics% -T "DISCNUMBER=%cdnumber%" -T "TOTALDISCS=%totalcds%" -T "TOTALTRACKS=%numtracks%" %hascover%--picture="%coverfile%"%hascover% %source% -o %dest%

TOC of the extracted CD

     Track |   Start  |  Length  | Start sector | End sector
    ---------------------------------------------------------
        1  |  0:00.00 |  7:18.09 |         0    |    32858
        2  |  7:18.09 |  6:28.58 |     32859    |    62016
        3  | 13:46.67 |  5:52.57 |     62017    |    88473
        4  | 19:39.49 |  3:29.46 |     88474    |   104194
        5  | 23:09.20 |  6:25.24 |    104195    |   133093
        6  | 29:34.44 |  4:58.71 |    133094    |   155514
        7  | 34:33.40 |  4:07.73 |    155515    |   174112
        8  | 38:41.38 |  5:54.64 |    174113    |   200726
        9  | 44:36.27 |  5:45.37 |    200727    |   226638
       10  | 50:21.64 |  2:55.67 |    226639    |   239830
       11  | 53:17.56 |  5:34.32 |    239831    |   264912
       12  | 58:52.13 |  2:33.19 |    264913    |   276406
       13  | 61:25.32 |  5:18.73 |    276407    |   300329
       14  | 66:44.30 |  3:44.41 |    300330    |   317170

Range status and errors

Selected range

     Filename D:\Jazz and Blues\VA - Simply dinner jazz 4CD (2008)(Flac+.cue)\Disc 4 Desserts\Various Artists - Simply dinner jazz (CD4 - Desserts).wav

     Peak level 98.7 %
     Extraction speed 7.9 X
     Range quality 100.0 %
     Test CRC 203F3AF4
     Copy CRC 203F3AF4
     Copy OK

No errors occurred

AccurateRip summary

Track  1  cannot be verified as accurate (confidence 4)  [69822189], AccurateRip returned [C16A7ED0]  (AR v2)
Track  2  cannot be verified as accurate (confidence 4)  [0C6C9BE8], AccurateRip returned [5ACA4457]  (AR v2)
Track  3  cannot be verified as accurate (confidence 4)  [40F48316], AccurateRip returned [76DFE5BD]  (AR v2)
Track  4  cannot be verified as accurate (confidence 4)  [605A08ED], AccurateRip returned [44613FA0]  (AR v2)
Track  5  cannot be verified as accurate (confidence 4)  [2F07D655], AccurateRip returned [AEF273D8]  (AR v2)
Track  6  cannot be verified as accurate (confidence 4)  [0C1989DB], AccurateRip returned [0990F73A]  (AR v2)
Track  7  cannot be verified as accurate (confidence 4)  [3D9AE00E], AccurateRip returned [7AD4486B]  (AR v2)
Track  8  cannot be verified as accurate (confidence 4)  [023B2D31], AccurateRip returned [33A27312]  (AR v2)
Track  9  cannot be verified as accurate (confidence 4)  [58649B12], AccurateRip returned [EDD93B92]  (AR v2)
Track 10  cannot be verified as accurate (confidence 4)  [2603B917], AccurateRip returned [2984196D]  (AR v2)
Track 11  cannot be verified as accurate (confidence 4)  [9FAAF538], AccurateRip returned [73D3D4EE]  (AR v2)
Track 12  cannot be verified as accurate (confidence 4)  [86408F5C], AccurateRip returned [3FC0DEBD]  (AR v2)
Track 13  cannot be verified as accurate (confidence 4)  [4799F605], AccurateRip returned [3E3C7951]  (AR v2)
Track 14  cannot be verified as accurate (confidence 3)  [45F92A69], AccurateRip returned [17D936AB]  (AR v2)

No tracks could be verified as accurate
You may have a different pressing from the one(s) in the database

End of status report

---- CUETools DB Plugin V2.1.3

[CTDB TOCID: .W5QkZ6esaWdC4ZA6jOS9WB8too-] found, Submit result: .W5QkZ6esaWdC4ZA6jOS9WB8too- has been confirmed
[09233855] (1/4) No match
[8171eba8] (3/4) Accurately ripped

==== Log checksum 739772BA9EAEBAA555A1445D9CC59F74571A1E60D2E049DDC212AF0F2BF300D3 ====
Код:
Код:
-----------------------

DON'T MODIFY THIS FILE

-----------------------

PERFORMER: auCDtect Task Manager, ver. 1.6.0 RC1 build 1.6.0.1
Copyright (c) 2008-2010 y-soft. All rights reserved
http:/y-soft.org

ANALYZER: auCDtect: CD records authenticity detector, version 0.8.2
Copyright (c) 2004 Oleg Berngardt. All rights reserved.
Copyright (c) 2004 Alexander Djourik. All rights reserved.

FILE: Various Artists - Simply dinner jazz (CD4 - Desserts).flac
  Size: 374896486 Hash: 80BA355969C6C0634CE88264B735A88B Accuracy: -m0
  Conclusion: MPEG 95%
  Signature: 428B6E3F42C5B32971BE830C81A7E6D572A93B5B
Правила, инструкции, FAQ!!!
Торрент  Добавлен [05 сен 2015, 23:18] Скачать торрент Магнет ссылка
Скачать торрент
[ Размер 16.7 КБ / Просмотров 363 ]

Статус
Проверен 
 
Размер  1.29 ГБ
Приватный: Нет (DHT включён)
.torrent скачан  22
Как залить торрент? | Как скачать Torrent? | Ошибка в торренте? Качайте магнет  


     Отправить личное сообщение
   
Страница 1 из 1
Показать сообщения за:  Поле сортировки  
Начать новую тему Ответить на тему


Сейчас этот форум просматривают: нет зарегистрированных пользователей и гости: 0


Вы не можете начинать темы
Вы не можете отвечать на сообщения
Вы не можете редактировать свои сообщения
Вы не можете удалять свои сообщения
Вы не можете добавлять вложения

Перейти:  
Ресурс не предоставляет электронные версии произведений, а занимается лишь коллекционированием и каталогизацией ссылок, присылаемых и публикуемых на форуме нашими читателями. Если вы являетесь правообладателем какого-либо представленного материала и не желаете чтобы ссылка на него находилась в нашем каталоге, свяжитесь с нами и мы незамедлительно удалим её. Файлы для обмена на трекере предоставлены пользователями сайта, и администрация не несёт ответственности за их содержание. Просьба не заливать файлы, защищенные авторскими правами, а также файлы нелегального содержания!