Начать новую тему Ответить на тему
Статистика раздачи
Размер: 8.62 ГБ | Добавлен: 10 сен 2019, 23:25 | Скачали: 0
Сидеров: 1  [0 байт/сек]    Личеров: 0  [0 байт/сек]
Пред. тема | След. тема 

Автор
Сообщение

СообщениеДобавлено: 10 сен 2019, 23:25 

Ответить с цитатой 

Ultra Vomit - L'Olym putain de Pia
Жанр: Heavy Metal, Grindcore, Death Metal, Parody
Продолжительность: 01:40:15
Год выпуска: 2019
Треклист:
1. Darry coal chamber
2. Les bonnes manières
3. Un chien géant
4. E-tron (digital caca)
5. Mechanical chiwawa
6. Je ne t’es jamait autans aimer
7. Mountains of maths
8. Calojira
9. Takoyaki
10. Boulangerie pâtisserie
11. Super sexe
12. Hyper sexe
13. Pov’ connard
14. Batman
15. Une souris verte
16. Phoned to death
17. La ch’nille
18. La bouillie
19. Poker face
20. Keken
21. Pink pantera
22. Anthracte
23. Je possède un cousin
24. Judas prost
25. I like to vomit
26. Pipi vs caca
27. Outro (c’était pas mal là)
28. Je collectionne des canards (vivants)
29. Kammthaar
30. Quand j’étais petit
31. Evier metal
Качество: BDRip
Разрешение видео/развертка: 1080p
Контейнер: MKV
Видео кодек: H.264
Аудио кодек: AC3
Видео: AVC, 1920x1080 (16:9), 25.000 fps, 11.5 Mb/s (0.221 bit/pixel)
Аудио#1: AC-3, 48.0 kHz, 2 ch, 640 kb/s
Аудио#2: AC-3, 48.0 kHz, 2 ch, 192 kb/s (commentary)
Код:
General
Unique ID                   : 48406311208281085272395606505604916940 (0x246AB767A69A6FF4387EAA5C13CA26CC)
Complete name               : T:\BDRip\ultra_vomit-lolymputaindepia_(2018-10-13)-fr-bluray-1080p-retail-x264-2019-focal_int.mkv
Format                      : Matroska
Format version              : Version 4
File size                   : 8.62 GiB
Duration                    : 1 h 40 min
Overall bit rate            : 12.3 Mb/s
Encoded date                : UTC 2019-07-23 08:16:07
Writing application         : mkvmerge v35.0.0 ('All The Love In The World') 32-bit
Writing library             : libebml v1.3.9 + libmatroska v1.5.2
Video
ID                          : 1
Format                      : AVC
Format/Info                 : Advanced Video Codec
Format profile              : High@L4.1
Format settings             : CABAC / 4 Ref Frames
Format settings, CABAC      : Yes
Format settings, Reference  : 4 frames
Codec ID                    : V_MPEG4/ISO/AVC
Duration                    : 1 h 40 min
Bit rate                    : 11.5 Mb/s
Width                       : 1 920 pixels
Height                      : 1 080 pixels
Display aspect ratio        : 16:9
Frame rate mode             : Constant
Frame rate                  : 25.000 FPS
Color space                 : YUV
Chroma subsampling          : 4:2:0
Bit depth                   : 8 bits
Scan type                   : Progressive
Bits/(Pixel*Frame)          : 0.221
Stream size                 : 8.04 GiB (93%)
Title                       : Ultra Vomit - L'Olymputaindepia
Writing library             : x264 core 157 r2969 d4099dd
Encoding settings           : cabac=1 / ref=4 / deblock=1:-2:-2 / analyse=0x3:0x133 / me=umh / subme=9 / psy=1 / psy_rd=1.00:0.00 / mixed_ref=1 / me_range=32 / chroma_me=1 / trellis=2 / 8x8dct=1 / cqm=0 / deadzone=21,11 / fast_pskip=0 / chroma_qp_offset=-2 / threads=24 / lookahead_threads=6 / sliced_threads=0 / nr=0 / decimate=1 / interlaced=0 / bluray_compat=0 / constrained_intra=0 / bframes=16 / b_pyramid=2 / b_adapt=2 / b_bias=0 / direct=3 / weightb=1 / open_gop=0 / weightp=2 / keyint=250 / keyint_min=25 / scenecut=40 / intra_refresh=0 / rc_lookahead=60 / rc=crf / mbtree=1 / crf=18.0 / qcomp=0.60 / qpmin=10 / qpmax=24 / qpstep=4 / ip_ratio=1.40 / aq=1:1.00
Language                    : French
Default                     : Yes
Forced                      : No
Color range                 : Limited
Matrix coefficients         : BT.709
Audio #1
ID                          : 2
Format                      : AC-3
Format/Info                 : Audio Coding 3
Commercial name             : Dolby Digital
Codec ID                    : A_AC3
Duration                    : 1 h 40 min
Bit rate mode               : Constant
Bit rate                    : 640 kb/s
Channel(s)                  : 2 channels
Channel layout              : L R
Sampling rate               : 48.0 kHz
Frame rate                  : 31.250 FPS (1536 SPF)
Bit depth                   : 16 bits
Compression mode            : Lossy
Stream size                 : 459 MiB (5%)
Title                       : AC3 2.0
Language                    : French
Service kind                : Complete Main
Default                     : Yes
Forced                      : No
Audio #2
ID                          : 3
Format                      : AC-3
Format/Info                 : Audio Coding 3
Commercial name             : Dolby Digital
Codec ID                    : A_AC3
Duration                    : 1 h 40 min
Bit rate mode               : Constant
Bit rate                    : 192 kb/s
Channel(s)                  : 2 channels
Channel layout              : L R
Sampling rate               : 48.0 kHz
Frame rate                  : 31.250 FPS (1536 SPF)
Bit depth                   : 16 bits
Compression mode            : Lossy
Stream size                 : 138 MiB (2%)
Title                       : AC3 2.0 (Commentary)
Language                    : French
Service kind                : Complete Main
Default                     : No
Forced                      : No
Menu
00:00:00.000                : :Intro
00:02:23.800                : :Darry Coal Chamber
00:04:01.720                : :Les bonnes manières
00:09:28.760                : :Un chien géant
00:12:00.120                : :E-Tron (Digital Caca)
00:14:16.800                : :Mechanical Chiwawa
00:15:53.000                : :Je ne t'es jamait autans aimer
00:17:50.000                : :Mountains of Maths
00:21:35.560                : :Calojira
00:23:50.080                : :Takoyaki
00:28:12.120                : :Boulangerie pâtisserie
00:30:43.680                : :Super Sexe
00:33:29.480                : :Hyper Sexe
00:34:38.200                : :Pov' connard
00:42:06.760                : :Batman
00:45:05.920                : :Une souris verte
00:47:02.880                : :Phoned to Death
00:48:00.520                : :La ch'nille
00:50:32.400                : :La bouillie
00:50:46.160                : :Poker Face
00:54:36.280                : :Keken
01:00:58.840                : :Pink Pantera
01:03:18.160                : :Anthracte
01:08:02.000                : :Je possède un cousin
01:10:35.440                : :Judas Prost
01:12:09.720                : :I Like to Vomit
01:13:51.760                : :Pipi Vs Caca
01:17:28.880                : :Outro (c'était pas mal là)
01:22:15.040                : :Je collectionne des canards (vivants)
01:27:31.920                : :Kammthaar
01:31:08.800                : :Quand j'étais petit
01:33:13.920                : :Evier Metal
01:39:01.640                : :Fin
Правила, инструкции, FAQ!!!
Торрент  Добавлен [10 сен 2019, 23:25] Скачать торрент Магнет ссылка
Скачать торрент
[ Размер 43.63 КБ / Просмотров 6 ]

Статус
Проверен 
 
Размер  8.62 ГБ
Приватный: Нет (DHT включён)
.torrent скачан  0
Как залить торрент? | Как скачать Torrent? | Ошибка в торренте? Качайте магнет  


     Отправить личное сообщение
   
Страница 1 из 1
Показать сообщения за:  Поле сортировки  
Начать новую тему Ответить на тему


Сейчас этот форум просматривают: нет зарегистрированных пользователей и гости: 0


Вы не можете начинать темы
Вы не можете отвечать на сообщения
Вы не можете редактировать свои сообщения
Вы не можете удалять свои сообщения
Вы не можете добавлять вложения

Перейти:  
Ресурс не предоставляет электронные версии произведений, а занимается лишь коллекционированием и каталогизацией ссылок, присылаемых и публикуемых на форуме нашими читателями. Если вы являетесь правообладателем какого-либо представленного материала и не желаете чтобы ссылка на него находилась в нашем каталоге, свяжитесь с нами и мы незамедлительно удалим её. Файлы для обмена на трекере предоставлены пользователями сайта, и администрация не несёт ответственности за их содержание. Просьба не заливать файлы, защищенные авторскими правами, а также файлы нелегального содержания!