Начать новую тему Ответить на тему
Статистика раздачи
Размер: 298.99 МБ | Добавлен: 13 апр 2019, 23:39 | Скачали: 1
Сидеров: 9  [0 байт/сек]    Личеров: 2  [0 байт/сек]
Пред. тема | След. тема 

Автор
Сообщение

СообщениеДобавлено: 13 апр 2019, 23:39 

Ответить с цитатой 

D-Devils / Dance With The Devil
Жанр: Trance/Hard House
Страна-производитель диска: Россия
Год издания диска: 2001
Издатель (лейбл): RMG/ToCo
Номер по каталогу: 1199-2/943.947-2
Страна: Бельгия
Аудио кодек: APE (*.ape)
Тип рипа: image+.cue
Битрейт аудио: lossless
Продолжительность: 46:36
Источник (релизер): собственный рип
Наличие сканов в содержимом раздачи: нет
Треклист:
01 Intro Dance With The Devil 1:14
02 The 6th Gate (Radio Mix) 3:15
03 Sex & Drugs & House (Stage Edit) 3:41
04 Judgement Day (Radio Mix) 3:25
05 The Devil Is A DJ (Extended Power Mix) 5:00
06 Love Her At The Meat Parade (Radio Version) 3:13
07 Goodnight Johnny (Peejay´s Album Mix) 4:07
08 Paranoid In Hell (Stage Edit) 3:11
09 Odin´s Odyssey (Original Retro Mix) 5:50
10 Final Countdown (Album Mix) 3:24
11 Black Magic (Don´t Stop Mix) 4:00
12 The 6th Gate (Miss Distress Mix) 5:37
13 Outro Mailbox 0:33
Код:
Exact Audio Copy V0.99 prebeta 5 from 4. May 2009
Отчёт EAC об извлечении, выполненном 28. февраля 2011, 15:36
D-Devils / Dance With Me
Дисковод: TSSTcorpDVD+-RW TS-H653F   Adapter: 3  ID: 0
Режим чтения                 : Достоверность
Использование точного потока : Да
Отключение кэша аудио        : Да
Использование указателей C2  : Нет
Коррекция смещения при чтении                     : 6
Способность читать области Lead-in и Lead-out     : Нет
Заполнение пропущенных сэмплов тишиной            : Да
Удаление блоков с тишиной в начале и конце        : Нет
При вычислениях CRC использовались нулевые сэмплы : Да
Интерфейс                                         : Встроенный Win32-интерфейс для Win NT/2000
Выходной формат : Внутренние WAV-операции
Формат сэмплов  : 44.100 Гц; 16 бит; стерео
TOC извлечённого CD
     Трек |   Старт  | Длительность | Начальный сектор | Конечный сектор
    ---------------------------------------------------------------------
       1  |  0:00.00 |    1:14.29   |           0      |       5578
       2  |  1:14.29 |    3:15.40   |        5579      |      20243
       3  |  4:29.69 |    3:41.28   |       20244      |      36846
       4  |  8:11.22 |    3:25.39   |       36847      |      52260
       5  | 11:36.61 |    5:00.60   |       52261      |      74820
       6  | 16:37.46 |    3:13.23   |       74821      |      89318
       7  | 19:50.69 |    4:07.09   |       89319      |     107852
       8  | 23:58.03 |    3:11.43   |      107853      |     122220
       9  | 27:09.46 |    5:50.35   |      122221      |     148505
      10  | 33:00.06 |    3:24.68   |      148506      |     163873
      11  | 36:24.74 |    4:00.18   |      163874      |     181891
      12  | 40:25.17 |    5:37.50   |      181892      |     207216
      13  | 46:02.67 |    0:33.46   |      207217      |     209737
Характеристики диапазона извлечения и сообщения об ошибках
Выбранный диапазон
     Имя файла C:\Users\Администратор\Music\D-Devils - Dance With Me.wav
     Пиковый уровень 89.1 %
     Качество диапазона 100.0 %
     CRC теста B3835B40
     CRC копии B3835B40
     Копирование... OK
Ошибок не произошло
AccurateRip: сводка
Трек  1  точное извлечение (доверие 1)  [3D2BF75E]
Трек  2  точное извлечение (доверие 1)  [66ADD39B]
Трек  3  точное извлечение (доверие 1)  [EDBE342C]
Трек  4  точное извлечение (доверие 1)  [79E0A593]
Трек  5  точное извлечение (доверие 1)  [CB7000D2]
Трек  6  точное извлечение (доверие 1)  [5BDC716D]
Трек  7  точное извлечение (доверие 1)  [772D5933]
Трек  8  точное извлечение (доверие 1)  [68E0EF90]
Трек  9  точное извлечение (доверие 1)  [CDCF45CF]
Трек 10  точное извлечение (доверие 1)  [E62F416D]
Трек 11  точное извлечение (доверие 1)  [5E07ABC3]
Трек 12  точное извлечение (доверие 1)  [21EA20A8]
Трек 13  точное извлечение (доверие 1)  [B09C9131]
Все треки извлечены точно
Конец отчёта
Правила, инструкции, FAQ!!!
Торрент  Добавлен [13 апр 2019, 23:39] Скачать торрент Магнет ссылка
Скачать торрент
[ Размер 12.29 КБ / Просмотров 21 ]

Статус
Проверен 
 
Размер  298.99 МБ
Приватный: Нет (DHT включён)
.torrent скачан  1
Как залить торрент? | Как скачать Torrent? | Ошибка в торренте? Качайте магнет  


     Отправить личное сообщение
   

СообщениеДобавлено: 16 сен 2019, 10:40 

Ответить с цитатой 

Зарегистрированные пользователи
Зарегистрированные пользователи

Стаж: 1 месяц 2 дня
Раздал: 0 байт
Скачал: 0 байт
Ратио: Inf.
Торренты: 0
Прошу, встаньте на раздачу :bi:


Профиль     Отправить личное сообщение
   

СообщениеДобавлено: 16 сен 2019, 20:42 

Ответить с цитатой 

Администратор
Администратор
Аватара пользователя

Стаж: 7 лет 2 дня
Раздал: 290.91 ГБ
Скачал: 158.38 ГБ
Ратио: 1.837
Торренты: 13
Не вижу проблем :bn: , для Вас скачал и стаю на раздаче

_________________
Не скачивается раздача? напишите об этом в теме!


Профиль     Отправить личное сообщение
   
Страница 1 из 1
Показать сообщения за:  Поле сортировки  
Начать новую тему Ответить на тему


Сейчас этот форум просматривают: нет зарегистрированных пользователей и гости: 0


Вы не можете начинать темы
Вы не можете отвечать на сообщения
Вы не можете редактировать свои сообщения
Вы не можете удалять свои сообщения
Вы не можете добавлять вложения

Перейти:  
Ресурс не предоставляет электронные версии произведений, а занимается лишь коллекционированием и каталогизацией ссылок, присылаемых и публикуемых на форуме нашими читателями. Если вы являетесь правообладателем какого-либо представленного материала и не желаете чтобы ссылка на него находилась в нашем каталоге, свяжитесь с нами и мы незамедлительно удалим её. Файлы для обмена на трекере предоставлены пользователями сайта, и администрация не несёт ответственности за их содержание. Просьба не заливать файлы, защищенные авторскими правами, а также файлы нелегального содержания!
cron