Начать новую тему Ответить на тему
Статистика раздачи
Размер: 452.7 МБ | Добавлен: 23 май 2019, 20:04 | Скачали: 0
Сидеров: 0  [0 байт/сек]    Личеров: 0  [0 байт/сек]
Пред. тема | След. тема 

Автор
Сообщение

СообщениеДобавлено: 23 май 2019, 20:04 

Ответить с цитатой 

X-Session / A Trip To Xanigy
Жанр: Trance, Euro House, Synth-pop
Носитель: CD
Страна-производитель диска: Belgium
Год издания: 1998
Издатель (лейбл): CNR Music
Номер по каталогу: 2102355
Страна: Belgium
Аудиокодек: FLAC (*.flac)
Тип рипа: image+.cue
Битрейт аудио: lossless
Продолжительность: 01:05:19
Источник (релизер): рип LDE1983
Наличие сканов в содержимом раздачи: нет
Треклист:
01 Xanigy Ouverture
02 Say Yeah
03 To The Sky
04 Baby It's You
05 Lucky Number
06 The Sound (Da Flip Remix)
07 Pump It
08 Bang Bang
09 Say Yeah (Acapella Version)
10 Back To You
11 Gimme The Power
12 Xanigy (Club Mix)
13 Xanigy (Absolom Edit)
14 Xanigy (Viper Remix)
15 A Trip To Xanigy
16 Xanigy Mix
Код:
Exact Audio Copy V1.0 beta 3 from 29. August 2011
Отчёт EAC об извлечении, выполненном 11. февраля 2014, 5:24
X-SESSION / A trip to Xanigy
Дисковод: Optiarc DVD RW AD-7240S   Adapter: 1  ID: 0
Режим чтения                 : Достоверность
Использование точного потока : Да
Отключение кэша аудио        : Да
Использование указателей C2  : Нет
Коррекция смещения при чтении                     : 48
Способность читать области Lead-in и Lead-out     : Нет
Заполнение пропущенных сэмплов тишиной            : Да
Удаление блоков с тишиной в начале и конце        : Нет
При вычислениях CRC использовались нулевые сэмплы : Да
Интерфейс                                         : Встроенный Win32-интерфейс для Win NT/2000
Выходной формат          : Пользовательский кодировщик
Выбранный битрейт        : 1024 kBit/s
Качество                 : Высокий
Добавление ID3-тега      : Нет
Утилита сжатия           : C:\Program Files\Exact Audio Copy\Flac\flac.exe
Дополнительные параметры : -V -8 %source%
TOC извлечённого CD
     Трек |   Старт  | Длительность | Начальный сектор | Конечный сектор
    ---------------------------------------------------------------------
       1  |  0:00.00 |    3:16.67   |           0      |      14766
       2  |  3:16.67 |    3:20.28   |       14767      |      29794
       3  |  6:37.20 |    2:45.55   |       29795      |      42224
       4  |  9:23.00 |    3:39.62   |       42225      |      58711
       5  | 13:02.62 |    3:19.58   |       58712      |      73694
       6  | 16:22.45 |    5:25.50   |       73695      |      98119
       7  | 21:48.20 |    3:15.17   |       98120      |     112761
       8  | 25:03.37 |    3:07.38   |      112762      |     126824
       9  | 28:11.00 |    1:39.55   |      126825      |     134304
      10  | 29:50.55 |    3:35.05   |      134305      |     150434
      11  | 33:25.60 |    3:08.10   |      150435      |     164544
      12  | 36:33.70 |    4:21.22   |      164545      |     184141
      13  | 40:55.17 |    6:02.18   |      184142      |     211309
      14  | 46:57.35 |    6:17.47   |      211310      |     239631
      15  | 53:15.07 |    3:52.65   |      239632      |     257096
      16  | 57:07.72 |   10:14.65   |      257097      |     303211
Характеристики диапазона извлечения и сообщения об ошибках
Выбранный диапазон
     Имя файла C:\Users\mityy\Desktop\Rip LDE1983, club5328816 vk.com\Release\X-SESSION - A trip to Xanigy.wav
     Пиковый уровень 100.0 %
     Скорость извлечения 4.3 X
     Качество диапазона 100.0 %
     CRC теста 6C4286E0
     CRC копии 6C4286E0
     Копирование... OK
Ошибок не произошло
AccurateRip: сводка
Трек  1  : извлечено точно (доверие 1)  [031A3D50]  (AR v2)
Трек  2  : извлечено точно (доверие 1)  [0A363026]  (AR v2)
Трек  3  : извлечено точно (доверие 1)  [B96491BA]  (AR v2)
Трек  4  : извлечено точно (доверие 1)  [BCD2FB53]  (AR v2)
Трек  5  : извлечено точно (доверие 1)  [0E53E957]  (AR v2)
Трек  6  : извлечено точно (доверие 1)  [2D38E1C0]  (AR v2)
Трек  7  : извлечено точно (доверие 1)  [CC52FEA5]  (AR v2)
Трек  8  : извлечено точно (доверие 1)  [7D83B418]  (AR v2)
Трек  9  : извлечено точно (доверие 1)  [36793560]  (AR v2)
Трек 10  : извлечено точно (доверие 1)  [ED84CC4F]  (AR v2)
Трек 11  : извлечено точно (доверие 1)  [B62FF3BF]  (AR v2)
Трек 12  : извлечено точно (доверие 1)  [84D4B936]  (AR v2)
Трек 13  : извлечено точно (доверие 1)  [DE3E1BD9]  (AR v2)
Трек 14  : извлечено точно (доверие 1)  [76C1C159]  (AR v2)
Трек 15  : извлечено точно (доверие 1)  [A055675E]  (AR v2)
Трек 16  : извлечено точно (доверие 1)  [BBD02306]  (AR v2)
Все треки извлечены точно
Конец отчёта
==== Контрольная сумма отчёта E3723348935ABD68DD1EC90DF0E79C64BB2FB4B9F411D1C13F54924F00546587 ====
Код:
REM GENRE Dance
REM DATE 1998
REM DISCID FD0FCA10
REM COMMENT "ExactAudioCopy v1.0b3"
PERFORMER "X-SESSION"
TITLE "A trip to Xanigy"
FILE "X-SESSION - A trip to Xanigy.flac" WAVE
  TRACK 01 AUDIO
    TITLE "Xanigy overture"
    PERFORMER "X-SESSION"
    INDEX 01 00:00:00
  TRACK 02 AUDIO
    TITLE "Say yeah"
    PERFORMER "X-SESSION"
    INDEX 01 03:16:67
  TRACK 03 AUDIO
    TITLE "To the sky"
    PERFORMER "X-SESSION"
    INDEX 01 06:37:20
  TRACK 04 AUDIO
    TITLE "Baby  it's you"
    PERFORMER "X-SESSION"
    INDEX 01 09:23:00
  TRACK 05 AUDIO
    TITLE "Lucky number"
    PERFORMER "X-SESSION"
    INDEX 01 13:02:62
  TRACK 06 AUDIO
    TITLE "The sound (da flip remix)"
    PERFORMER "X-SESSION"
    INDEX 01 16:22:45
  TRACK 07 AUDIO
    TITLE "Pump it"
    PERFORMER "X-SESSION"
    INDEX 01 21:48:20
  TRACK 08 AUDIO
    TITLE "Bang Bang"
    PERFORMER "X-SESSION"
    INDEX 01 25:03:37
  TRACK 09 AUDIO
    TITLE "Say yeah (acapella version)"
    PERFORMER "X-SESSION"
    INDEX 01 28:11:00
  TRACK 10 AUDIO
    TITLE "Back to you"
    PERFORMER "X-SESSION"
    INDEX 01 29:50:55
  TRACK 11 AUDIO
    TITLE "Gimme the power"
    PERFORMER "X-SESSION"
    INDEX 01 33:25:60
  TRACK 12 AUDIO
    TITLE "Xanigy club mix"
    PERFORMER "X-SESSION"
    INDEX 01 36:33:70
  TRACK 13 AUDIO
    TITLE "Xanigy absolom edit"
    PERFORMER "X-SESSION"
    INDEX 01 40:55:17
  TRACK 14 AUDIO
    TITLE "Viper remix"
    PERFORMER "X-SESSION"
    INDEX 01 46:57:35
  TRACK 15 AUDIO
    TITLE "A trip to Xanigy"
    PERFORMER "X-SESSION"
    INDEX 01 53:15:07
  TRACK 16 AUDIO
    TITLE "Xanigy mix"
    PERFORMER "X-SESSION"
    INDEX 00 57:06:40
    INDEX 01 57:07:72
Доп. информация: http://www.discogs.com/X-Session-A-Trip-To-Xanigy/release/1440875
Правила, инструкции, FAQ!!!
Торрент  Добавлен [23 май 2019, 20:04] Скачать торрент Магнет ссылка
Скачать торрент
[ Размер 18.37 КБ / Просмотров 4 ]

Статус
Проверен 
 
Размер  452.7 МБ
Приватный: Нет (DHT включён)
.torrent скачан  0
Как залить торрент? | Как скачать Torrent? | Ошибка в торренте? Качайте магнет  


     Отправить личное сообщение
   
Страница 1 из 1
Показать сообщения за:  Поле сортировки  
Начать новую тему Ответить на тему


Сейчас этот форум просматривают: нет зарегистрированных пользователей и гости: 0


Вы не можете начинать темы
Вы не можете отвечать на сообщения
Вы не можете редактировать свои сообщения
Вы не можете удалять свои сообщения
Вы не можете добавлять вложения

Перейти:  
Ресурс не предоставляет электронные версии произведений, а занимается лишь коллекционированием и каталогизацией ссылок, присылаемых и публикуемых на форуме нашими читателями. Если вы являетесь правообладателем какого-либо представленного материала и не желаете чтобы ссылка на него находилась в нашем каталоге, свяжитесь с нами и мы незамедлительно удалим её. Файлы для обмена на трекере предоставлены пользователями сайта, и администрация не несёт ответственности за их содержание. Просьба не заливать файлы, защищенные авторскими правами, а также файлы нелегального содержания!
cron