Начать новую тему Ответить на тему
Статистика раздачи
Размер: 176.78 МБ | Добавлен: 23 май 2019, 20:07 | Скачали: 0
Сидеров: 0  [0 байт/сек]    Личеров: 0  [0 байт/сек]
Пред. тема | След. тема 

Автор
Сообщение

СообщениеДобавлено: 23 май 2019, 20:07 

Ответить с цитатой 

Razzia / Everybody
Жанр: Trance, Euro House
Страна-производитель диска: Sweden
Год издания: 1999
Издатель (лейбл): Remixed Records
Номер по каталогу: RRCDM181
Страна: Sweden
Аудиокодек: FLAC (*.flac)
Тип рипа: tracks+.cue
Битрейт аудио: lossless
Продолжительность: 00:22:56
Источник (релизер): What.CD (Beausean)
Наличие сканов в содержимом раздачи: нет
Треклист:
1. Everybody (Razzia Radio) 3:21
2. Everybody (Razzia Extended) 4:53
3. Everybody (Beezed's Try 2 Loop Mix) 5:24
4. Everybody (Double N's Remix) 5:13
5. Everybody (2 Mental's Mix) 4:00
Код:
Exact Audio Copy V0.99 prebeta 5 from 4. May 2009
EAC extraction logfile from 20. September 2010, 21:21
Razzia / Everybody
Used drive  : Optiarc DVD RW AD-7530B   Adapter: 1  ID: 0
Read mode               : Secure
Utilize accurate stream : Yes
Defeat audio cache      : Yes
Make use of C2 pointers : No
Read offset correction                      : 6
Overread into Lead-In and Lead-Out          : No
Fill up missing offset samples with silence : Yes
Delete leading and trailing silent blocks   : No
Null samples used in CRC calculations       : Yes
Used interface                              : Native Win32 interface for Win NT & 2000
Gap handling                                : Appended to previous track
Used output format              : User Defined Encoder
Selected bitrate                : 128 kBit/s
Quality                         : High
Add ID3 tag                     : No
Command line compressor         : C:\Program Files\Exact Audio Copy\Flac\flac.exe
Additional command line options : -8 -V -T "ARTIST=%a" -T "TITLE=%t" -T "ALBUM=%g" -T "DATE=%y" -T "TRACKNUMBER=%n" -T "GENRE=%m" -T "COMMENT=EAC FLAC -8" %s
TOC of the extracted CD
     Track |   Start  |  Length  | Start sector | End sector
    ---------------------------------------------------------
        1  |  0:00.00 |  3:22.11 |         0    |    15160
        2  |  3:22.11 |  4:54.20 |     15161    |    37230
        3  |  8:16.31 |  5:25.32 |     37231    |    61637
        4  | 13:41.63 |  5:13.69 |     61638    |    85181
        5  | 18:55.57 |  4:00.40 |     85182    |   103221
Track  1
     Filename C:\Users\Станислав\Desktop\Razzia - Everybody (1999) [FLAC]\01 - Everybody (Razzia Radio).wav
     Pre-gap length  0:00:02.00
     Peak level 100.0 %
     Track quality 100.0 %
     Test CRC 0B5AF0FD
     Copy CRC 0B5AF0FD
     Track not present in AccurateRip database
     Copy OK
Track  2
     Filename C:\Users\Станислав\Desktop\Razzia - Everybody (1999) [FLAC]\02 - Everybody (Razzia Extended).wav
     Peak level 100.0 %
     Track quality 100.0 %
     Test CRC F2FCDA86
     Copy CRC F2FCDA86
     Track not present in AccurateRip database
     Copy OK
Track  3
     Filename C:\Users\Станислав\Desktop\Razzia - Everybody (1999) [FLAC]\03 - Everybody (Beezed's Try 2 Loop Mix).wav
     Peak level 100.0 %
     Track quality 99.9 %
     Test CRC 0C375B04
     Copy CRC 0C375B04
     Track not present in AccurateRip database
     Copy OK
Track  4
     Filename C:\Users\Станислав\Desktop\Razzia - Everybody (1999) [FLAC]\04 - Everybody (Double N's Remix).wav
     Peak level 100.0 %
     Track quality 100.0 %
     Test CRC EC762B54
     Copy CRC EC762B54
     Track not present in AccurateRip database
     Copy OK
Track  5
     Filename C:\Users\Станислав\Desktop\Razzia - Everybody (1999) [FLAC]\05 - Everybody (2 Mental's Remix).wav
     Peak level 100.0 %
     Track quality 100.0 %
     Test CRC C8C948D0
     Copy CRC C8C948D0
     Track not present in AccurateRip database
     Copy OK
None of the tracks are present in the AccurateRip database
No errors occurred
End of status report
Код:
REM GENRE Trance
REM DATE 1999
REM DISCID 36056005
REM COMMENT "ExactAudioCopy v0.99pb5"
PERFORMER "Razzia"
TITLE "Everybody"
FILE "01 - Everybody (Razzia Radio).wav" WAVE
  TRACK 01 AUDIO
    TITLE "Everybody (Razzia Radio)"
    PERFORMER "Razzia"
    INDEX 01 00:00:00
FILE "02 - Everybody (Razzia Extended).wav" WAVE
  TRACK 02 AUDIO
    TITLE "Everybody (Razzia Extended)"
    PERFORMER "Razzia"
    INDEX 01 00:00:00
FILE "03 - Everybody (Beezed's Try 2 Loop Mix).wav" WAVE
  TRACK 03 AUDIO
    TITLE "Everybody (Beezed's Try 2 Loop Mix)"
    PERFORMER "Razzia"
    INDEX 01 00:00:00
FILE "04 - Everybody (Double N's Remix).wav" WAVE
  TRACK 04 AUDIO
    TITLE "Everybody (Double N's Remix)"
    PERFORMER "Razzia"
    INDEX 01 00:00:00
FILE "05 - Everybody (2 Mental's Remix).wav" WAVE
  TRACK 05 AUDIO
    TITLE "Everybody (2 Mental's Remix)"
    PERFORMER "Razzia"
    INDEX 01 00:00:00
Правила, инструкции, FAQ!!!
Торрент  Добавлен [23 май 2019, 20:07] Скачать торрент Магнет ссылка
Скачать торрент
[ Размер 14.74 КБ / Просмотров 4 ]

Статус
Проверен 
 
Размер  176.78 МБ
Приватный: Нет (DHT включён)
.torrent скачан  0
Как залить торрент? | Как скачать Torrent? | Ошибка в торренте? Качайте магнет  


     Отправить личное сообщение
   
Страница 1 из 1
Показать сообщения за:  Поле сортировки  
Начать новую тему Ответить на тему


Сейчас этот форум просматривают: нет зарегистрированных пользователей и гости: 0


Вы не можете начинать темы
Вы не можете отвечать на сообщения
Вы не можете редактировать свои сообщения
Вы не можете удалять свои сообщения
Вы не можете добавлять вложения

Перейти:  
Ресурс не предоставляет электронные версии произведений, а занимается лишь коллекционированием и каталогизацией ссылок, присылаемых и публикуемых на форуме нашими читателями. Если вы являетесь правообладателем какого-либо представленного материала и не желаете чтобы ссылка на него находилась в нашем каталоге, свяжитесь с нами и мы незамедлительно удалим её. Файлы для обмена на трекере предоставлены пользователями сайта, и администрация не несёт ответственности за их содержание. Просьба не заливать файлы, защищенные авторскими правами, а также файлы нелегального содержания!
cron