Начать новую тему Ответить на тему
Статистика раздачи
Размер: 139.84 МБ | Добавлен: 23 май 2019, 20:07 | Скачали: 0
Сидеров: 0  [0 байт/сек]    Личеров: 0  [0 байт/сек]
Пред. тема | След. тема 

Автор
Сообщение

СообщениеДобавлено: 23 май 2019, 20:07 

Ответить с цитатой 

Future Tone – I Feel Alive (Maxi CD)
Жанр: Trance, Euro House
Страна-производитель диска: Sweden
Год издания диска: 1999
Издатель (лейбл): W Records (Sweden)
Номер по каталогу: DURCDS-005
Аудиокодек: FLAC (*.flac)
Тип рипа: image+.cue
Битрейт аудио: lossless
Продолжительность: 20,66
Источник (релизер): Собственный рип
Наличие сканов в содержимом раздачи: нет
Треклист:
1 I Feel Alive (Radio Edit) 3:10
2 I Feel Alive (Pinocchio Remix) 6:08
3 I Feel Alive (Crash Remix) 6:16
4 I Feel Alive (X-tended Floor Attack) 5:32
Код:
Exact Audio Copy V1.0 beta 2 from 29. April 2011
Отчёт EAC об извлечении, выполненном 3. июля 2011, 15:18
Future Tone /  I Feel Alive
Дисковод: SlimtypeDVD A DS8A5SH   Adapter: 0  ID: 1
Режим чтения                 : Достоверность
Использование точного потока : Да
Отключение кэша аудио        : Да
Использование указателей C2  : Нет
Коррекция смещения при чтении                     : 6
Способность читать области Lead-in и Lead-out     : Нет
Заполнение пропущенных сэмплов тишиной            : Да
Удаление блоков с тишиной в начале и конце        : Нет
При вычислениях CRC использовались нулевые сэмплы : Да
Интерфейс                                         : Встроенный Win32-интерфейс для Win NT/2000
Выходной формат : Внутренние WAV-операции
Формат сэмплов  : 44.100 Гц; 16 бит; стерео
TOC извлечённого CD
     Трек |   Старт  | Длительность | Начальный сектор | Конечный сектор
    ---------------------------------------------------------------------
       1  |  0:00.00 |    3:10.30   |           0      |      14279
       2  |  3:10.30 |    6:08.20   |       14280      |      41899
       3  |  9:18.50 |    6:16.37   |       41900      |      70136
       4  | 15:35.12 |    5:32.13   |       70137      |      95049
Характеристики диапазона извлечения и сообщения об ошибках
Выбранный диапазон
     Имя файла C:\Users\Samsung\Desktop\Новая папка (9)\Future Tone -  I Feel Alive.wav
     Пиковый уровень 97.5 %
     Скорость извлечения 2.3 X
     Качество диапазона 100.0 %
     CRC теста 96BF7F74
     CRC копии 96BF7F74
     Копирование... OK
Ошибок не произошло
Конец отчёта
Код:
REM GENRE Euro-House
REM DATE 1999
REM DISCID 2C04F304
REM COMMENT "ExactAudioCopy v1.0b2"
PERFORMER "Future Tone"
TITLE " I Feel Alive "
FILE "Future Tone -  I Feel Alive.wav" WAVE
  TRACK 01 AUDIO
    TITLE "01.I Feel Alive (Radio Edit) "
    PERFORMER "Future Tone"
    INDEX 01 00:00:00
  TRACK 02 AUDIO
    TITLE "02.I Feel Alive (Pinocchio Remix)"
    PERFORMER "Future Tone"
    INDEX 01 03:10:30
  TRACK 03 AUDIO
    TITLE "03.I Feel Alive (Crash Remix)"
    PERFORMER "Future Tone"
    INDEX 01 09:18:50
  TRACK 04 AUDIO
    TITLE "04.I Feel Alive (X-tended Floor Attack) "
    PERFORMER "Future Tone"
    INDEX 01 15:35:12
Доп. информация: http://www.discogs.com/Future-Tone-I-Feel-Alive/release/1290065
Правила, инструкции, FAQ!!!
Торрент  Добавлен [23 май 2019, 20:07] Скачать торрент Магнет ссылка
Скачать торрент
[ Размер 946 байт / Просмотров 5 ]

Статус
Проверен 
 
Размер  139.84 МБ
Приватный: Нет (DHT включён)
.torrent скачан  0
Как залить торрент? | Как скачать Torrent? | Ошибка в торренте? Качайте магнет  


     Отправить личное сообщение
   
Страница 1 из 1
Показать сообщения за:  Поле сортировки  
Начать новую тему Ответить на тему


Сейчас этот форум просматривают: нет зарегистрированных пользователей и гости: 0


Вы не можете начинать темы
Вы не можете отвечать на сообщения
Вы не можете редактировать свои сообщения
Вы не можете удалять свои сообщения
Вы не можете добавлять вложения

Перейти:  
Ресурс не предоставляет электронные версии произведений, а занимается лишь коллекционированием и каталогизацией ссылок, присылаемых и публикуемых на форуме нашими читателями. Если вы являетесь правообладателем какого-либо представленного материала и не желаете чтобы ссылка на него находилась в нашем каталоге, свяжитесь с нами и мы незамедлительно удалим её. Файлы для обмена на трекере предоставлены пользователями сайта, и администрация не несёт ответственности за их содержание. Просьба не заливать файлы, защищенные авторскими правами, а также файлы нелегального содержания!
cron