Начать новую тему Ответить на тему
Статистика раздачи
Размер: 115.15 МБ | Добавлен: 23 май 2019, 20:07 | Скачали: 0
Сидеров: 0  [0 байт/сек]    Личеров: 0  [0 байт/сек]
Пред. тема | След. тема 

Автор
Сообщение

СообщениеДобавлено: 23 май 2019, 20:07 

Ответить с цитатой 

0190-666 / Paradise Telefonsex
Жанр: Trance, Euro House
Страна-производитель диска: Germany
Год издания диска: 1996
Издатель (лейбл): CNR Music Germany
Номер по каталогу: 8800655
Аудиокодек: FLAC (*.flac)
Тип рипа: image+.cue
Битрейт аудио: lossless
Продолжительность: 18:15
Источник (релизер): мой диск
Наличие сканов в содержимом раздачи: нет
Треклист:
1 Paradise Telefonsex (Video Edit) 3:50
2 Paradise Telefonsex (Radio Edit) 3:45
3 Paradise Telefonsex (Original 12" Mix) 6:45
4 Paradise Telefonsex (Blanchet 7" Mix) 3:55
Код:
Exact Audio Copy V1.0 beta 3 from 29. August 2011
Отчёт EAC об извлечении, выполненном 3. марта 2012, 22:36
0190-666 / Paradise Telefonsex
Дисковод: TSSTcorpCDDVDW SH-S223C   Adapter: 3  ID: 0
Режим чтения                 : Достоверность
Использование точного потока : Да
Отключение кэша аудио        : Да
Использование указателей C2  : Нет
Коррекция смещения при чтении                     : 697
Способность читать области Lead-in и Lead-out     : Нет
Заполнение пропущенных сэмплов тишиной            : Да
Удаление блоков с тишиной в начале и конце        : Нет
При вычислениях CRC использовались нулевые сэмплы : Да
Интерфейс                                         : Встроенный Win32-интерфейс для Win NT/2000
Выходной формат          : Пользовательский кодировщик
Выбранный битрейт        : 128 kBit/s
Качество                 : Высокий
Добавление ID3-тега      : Нет
Утилита сжатия           : C:\Program Files (x86)\Exact Audio Copy\Flac\flac.exe
Дополнительные параметры : -V -8 %source%
TOC извлечённого CD
     Трек |   Старт  | Длительность | Начальный сектор | Конечный сектор
    ---------------------------------------------------------------------
       1  |  0:00.30 |    3:58.43   |          30      |      17922
       2  |  3:58.73 |    3:51.50   |       17923      |      35297
       3  |  7:50.48 |    7:14.69   |       35298      |      67916
       4  | 15:05.42 |    4:05.34   |       67917      |      86325
Характеристики диапазона извлечения и сообщения об ошибках
Выбранный диапазон
     Имя файла F:\Rutracker\0190-666 - Paradise Telefonsex\0190-666 - Paradise Telefonsex.wav
     Пиковый уровень 98.0 %
     Скорость извлечения 2.5 X
     Качество диапазона 100.0 %
     CRC теста 2A1ED0AE
     CRC копии 2A1ED0AE
     Копирование... OK
Ошибок не произошло
Конец отчёта
==== Контрольная сумма отчёта 079C13BA6DACDF81EA0B5C15AE65F96D97DFEEE1707B0F0640E6F2BE8BDFD55F ====
Правила, инструкции, FAQ!!!
Торрент  Добавлен [23 май 2019, 20:07] Скачать торрент Магнет ссылка
Скачать торрент
[ Размер 18.62 КБ / Просмотров 3 ]

Статус
Проверен 
 
Размер  115.15 МБ
Приватный: Нет (DHT включён)
.torrent скачан  0
Как залить торрент? | Как скачать Torrent? | Ошибка в торренте? Качайте магнет  


     Отправить личное сообщение
   
Страница 1 из 1
Показать сообщения за:  Поле сортировки  
Начать новую тему Ответить на тему


Сейчас этот форум просматривают: нет зарегистрированных пользователей и гости: 0


Вы не можете начинать темы
Вы не можете отвечать на сообщения
Вы не можете редактировать свои сообщения
Вы не можете удалять свои сообщения
Вы не можете добавлять вложения

Перейти:  
Ресурс не предоставляет электронные версии произведений, а занимается лишь коллекционированием и каталогизацией ссылок, присылаемых и публикуемых на форуме нашими читателями. Если вы являетесь правообладателем какого-либо представленного материала и не желаете чтобы ссылка на него находилась в нашем каталоге, свяжитесь с нами и мы незамедлительно удалим её. Файлы для обмена на трекере предоставлены пользователями сайта, и администрация не несёт ответственности за их содержание. Просьба не заливать файлы, защищенные авторскими правами, а также файлы нелегального содержания!
cron