Начать новую тему Ответить на тему
Статистика раздачи
Размер: 132.46 МБ | Добавлен: 23 май 2019, 20:04 | Скачали: 0
Сидеров: 0  [0 байт/сек]    Личеров: 0  [0 байт/сек]
Пред. тема | След. тема 

Автор
Сообщение

СообщениеДобавлено: 23 май 2019, 20:04 

Ответить с цитатой 

Dona Di Palma - I Run To You

Жанр: Trance
Страна-производитель диска: Germany
Год издания: 2002
Издатель (лейбл): ZYX Music
Номер по каталогу: ZYX 9506-8
Аудиокодек: FLAC (*.flac)
Тип рипа: tracks+.cue
Битрейт аудио: lossless
Продолжительность: 00:16:39
Источник (релизер): danceforum.ru (Westlife)
Наличие сканов в содержимом раздачи: да
Треклист:
1. I Run To You (Radio Edit)
2. I Run To You (Extended)
3. I Run To You (Mike Generale Rmx)


Код:
Exact Audio Copy V1.0 beta 3 from 29. August 2011
EAC extraction logfile from 28. October 2012, 12:55
dona di palma / i run to you
Used drive  : HL-DT-STDVDRAM GT51N   Adapter: 1  ID: 0
Read mode               : Secure
Utilize accurate stream : Yes
Defeat audio cache      : Yes
Make use of C2 pointers : No
Read offset correction                      : 103
Overread into Lead-In and Lead-Out          : No
Fill up missing offset samples with silence : Yes
Delete leading and trailing silent blocks   : No
Null samples used in CRC calculations       : Yes
Used interface                              : Native Win32 interface for Win NT & 2000
Gap handling                                : Appended to previous track
Used output format              : User Defined Encoder
Selected bitrate                : 1024 kBit/s
Quality                         : High
Add ID3 tag                     : No
Command line compressor         : C:\Program Files (x86)\Exact Audio Copy\FLAC\FLAC.EXE
Additional command line options : -6 -V -T "ARTIST=%artist%" -T "TITLE=%title%" -T "ALBUM=%albumtitle%" -T "DATE=%year%" -T "TRACKNUMBER=%tracknr%" -T "GENRE=%genre%" -T "COMMENT=Ripped by Westlife" -T "BAND=%albuminterpret%" -T "ALBUMARTIST=%albuminterpret%" -T "COMPOSER=%composer%" %haslyrics%--tag-from-file=LYRICS="%lyricsfile%"%haslyrics% -T "DISCNUMBER=%cdnumber%" -T "TOTALDISCS=%totalcds%" -T "TOTALTRACKS=%numtracks%" %hascover%--picture="%coverfile%"%hascover% %source% -o %dest%
TOC of the extracted CD
     Track |   Start  |  Length  | Start sector | End sector
    ---------------------------------------------------------
        1  |  0:00.00 |  3:49.47 |         0    |    17221
        2  |  3:49.47 |  6:05.37 |     17222    |    44633
        3  |  9:55.09 |  6:45.74 |     44634    |    75082
Track  1
     Filename H:\lossless_releases_mine\Dona_Di_Palma-I_Run_To_You-CDM-FLAC-2002-WESTLIFE\01_-_i_run_to_you_(radio_edit).wav
     Pre-gap length  0:00:02.00
     Peak level 96.6 %
     Extraction speed 1.2 X
     Track quality 100.0 %
     Test CRC E4C5AE13
     Copy CRC E4C5AE13
     Track not present in AccurateRip database
     Copy OK
Track  2
     Filename H:\lossless_releases_mine\Dona_Di_Palma-I_Run_To_You-CDM-FLAC-2002-WESTLIFE\02_-_i_run_to_you_(extended).wav
     Pre-gap length  0:00:02.00
     Peak level 96.6 %
     Extraction speed 1.5 X
     Track quality 100.0 %
     Test CRC 1AC27A65
     Copy CRC 1AC27A65
     Track not present in AccurateRip database
     Copy OK
Track  3
     Filename H:\lossless_releases_mine\Dona_Di_Palma-I_Run_To_You-CDM-FLAC-2002-WESTLIFE\03_-_i_run_to_you_(mike_generale_rmx).wav
     Pre-gap length  0:00:02.00
     Peak level 96.6 %
     Extraction speed 1.7 X
     Track quality 100.0 %
     Test CRC D91AE1B8
     Copy CRC D91AE1B8
     Track not present in AccurateRip database
     Copy OK
None of the tracks are present in the AccurateRip database
No errors occurred
End of status report
==== Log checksum 9AE5DD907BA283CFA5C7A37B436350183B66417F5C509FDA3941FA7CC4F780E5 ====
Код:
REM GENRE Dance
REM DATE 2002
REM DISCID 1D03E903
REM COMMENT "ExactAudioCopy v1.0b3"
PERFORMER "dona di palma"
TITLE "i run to you"
FILE "01_-_i_run_to_you_(radio_edit).wav" WAVE
  TRACK 01 AUDIO
    TITLE "i run to you (radio edit)"
    PERFORMER "dona di palma"
    INDEX 01 00:00:00
  TRACK 02 AUDIO
    TITLE "i run to you (extended)"
    PERFORMER "dona di palma"
    INDEX 00 03:47:47
FILE "02_-_i_run_to_you_(extended).wav" WAVE
    INDEX 01 00:00:00
  TRACK 03 AUDIO
    TITLE "i run to you (mike generale rmx)"
    PERFORMER "dona di palma"
    INDEX 00 06:03:37
FILE "03_-_i_run_to_you_(mike_generale_rmx).wav" WAVE
    INDEX 01 00:00:00
Код:
AUDIOCHECKER v2.0 beta (build 457) - by Dester - opdester@freemail.hu
~~~~~~~~~~~~~~~~~~~~~~~~~~~~~~~~~~
-=== НЕ РЕДАКТИРУЙТЕ ЭТОТ ФАЙЛ! ===-
Путь: ...\Dona_Di_Palma-I_Run_To_You-CDM-FLAC-2002-WESTLIFE
1 -=- 01_-_i_run_to_you_(radio_edit).flac -=- CDDA (100%)
2 -=- 02_-_i_run_to_you_(extended).flac -=- CDDA (99%)
3 -=- 03_-_i_run_to_you_(mike_generale_rmx).flac -=- CDDA (100%)
Сводка 99,67% CDDA
97716580
Правила, инструкции, FAQ!!!
Торрент  Добавлен [23 май 2019, 20:04] Скачать торрент Магнет ссылка
Скачать торрент
[ Размер 11.36 КБ / Просмотров 3 ]

Статус
Проверен 
 
Размер  132.46 МБ
Приватный: Нет (DHT включён)
.torrent скачан  0
Как залить торрент? | Как скачать Torrent? | Ошибка в торренте? Качайте магнет  


     Отправить личное сообщение
   
Страница 1 из 1
Показать сообщения за:  Поле сортировки  
Начать новую тему Ответить на тему


Сейчас этот форум просматривают: нет зарегистрированных пользователей и гости: 0


Вы не можете начинать темы
Вы не можете отвечать на сообщения
Вы не можете редактировать свои сообщения
Вы не можете удалять свои сообщения
Вы не можете добавлять вложения

Перейти:  
Ресурс не предоставляет электронные версии произведений, а занимается лишь коллекционированием и каталогизацией ссылок, присылаемых и публикуемых на форуме нашими читателями. Если вы являетесь правообладателем какого-либо представленного материала и не желаете чтобы ссылка на него находилась в нашем каталоге, свяжитесь с нами и мы незамедлительно удалим её. Файлы для обмена на трекере предоставлены пользователями сайта, и администрация не несёт ответственности за их содержание. Просьба не заливать файлы, защищенные авторскими правами, а также файлы нелегального содержания!
cron