Статистика раздачи
Размер: 444.02 МБ | Добавлен: 26 май 2019, 07:52 | Скачали: 0
Сидеров: 0  [0 байт/сек]    Личеров: 0  [0 байт/сек]
Пред. тема | След. тема 

Автор
Сообщение

СообщениеДобавлено: 26 май 2019, 07:52 

Exit - Someday
Жанр: Euro, Trance, Progressive
Носитель: CD
Страна-производитель диска (релиза): Эстония
Год издания: 2002
Аудиокодек: Monkey's Audio Compressor (*.ape)
Тип рипа: image+.cue
Битрейт аудио: lossless
Продолжительность: 01:04:42
Источник (релизер): Личный CD rip
Наличие сканов в содержимом раздачи: добавлены


Треклист:
01 - Escape
02 - G.B.M (The Exit Song)
03 - Beat Control
04 - Don't Look Back
05 - Feel Good
06 - I Want Hold You Tight
07 - Land Of Dreams
08 - Like A Bird
09 - Maybe I'm Crazy Tonnight
10 - Party People
11 - Please
12 - Put Your Hands Up
13 - Red Eyes
14 - Rock Da Baby
15 - Sexy Eyes
16 - When I Dream Of You
17 - Dj Melboom - Freedom Parade (Bonus track)


Код:
Exact Audio Copy V1.3 from 2. September 2016
Отчёт EAC об извлечении, выполненном 19. мая 2019, 19:57
Exit / Someday
Дисковод: HL-DT-STDVDRAM GSA-T20N   Adapter: 1  ID: 0
Режим чтения                 : Достоверность
Использование точного потока : Да
Отключение кэша аудио        : Да
Использование указателей C2  : Нет
Коррекция смещения при чтении                     : 667
Способность читать области Lead-in и Lead-out     : Нет
Заполнение пропущенных сэмплов тишиной            : Да
Удаление блоков с тишиной в начале и конце        : Нет
При вычислениях CRC использовались нулевые сэмплы : Да
Интерфейс                                         : Встроенный Win32-интерфейс для Win NT/2000
Выходной формат          : Пользовательский кодировщик
Выбранный битрейт        : 768 kBit/s
Качество                 : Высокий
Добавление ID3-тега      : Нет
Утилита сжатия           : { M } onkey's   { A } udio   { C } ompressor   v.4.44   (Jan 2019).exe
Дополнительные параметры : %dest% -t "Comment=by  РУ€_ик  for  RU_Tracker.org" -t "DiscID=%cddbid%" -t "Artist=%artist%" -t "Album=%albumtitle%" -t "Album Artist=%albumartist%" -t "Year=%year%" -t "Genre=%genre%" MAC.exe %source% %dest% -c4000 -V
TOC извлечённого CD
     Трек |   Старт  | Длительность | Начальный сектор | Конечный сектор
    ---------------------------------------------------------------------
       1  |  0:00.00 |    3:33.05   |           0      |      15979
       2  |  3:33.05 |    3:44.08   |       15980      |      32787
       3  |  7:17.13 |    3:42.34   |       32788      |      49471
       4  | 10:59.47 |    3:47.25   |       49472      |      66521
       5  | 14:46.72 |    3:24.62   |       66522      |      81883
       6  | 18:11.59 |    4:39.07   |       81884      |     102815
       7  | 22:50.66 |    3:59.56   |      102816      |     120796
       8  | 26:50.47 |    3:47.08   |      120797      |     137829
       9  | 30:37.55 |    3:50.61   |      137830      |     155140
      10  | 34:28.41 |    3:55.45   |      155141      |     172810
      11  | 38:24.11 |    4:18.08   |      172811      |     192168
      12  | 42:42.19 |    4:25.64   |      192169      |     212107
      13  | 47:08.08 |    3:22.21   |      212108      |     227278
      14  | 50:30.29 |    3:43.01   |      227279      |     244004
      15  | 54:13.30 |    3:36.56   |      244005      |     260260
      16  | 57:50.11 |    3:38.68   |      260261      |     276678
      17  | 61:29.04 |    3:13.22   |      276679      |     291175
Характеристики диапазона извлечения и сообщения об ошибках
Выбранный диапазон
     Имя файла C:\РУ€_ик\Exit - Someday.wav
     Пиковый уровень 98.8 %
     Скорость извлечения 3.1 X
     Качество диапазона 100.0 %
     CRC теста 589567A2
     CRC копии 589567A2
     Копирование... OK
Ошибок не произошло
AccurateRip: сводка
Трек  1  : извлечено точно (доверие 1)  [3BDA1409]  (AR v1)
Трек  2  : извлечено точно (доверие 1)  [662813A9]  (AR v1)
Трек  3  : извлечено точно (доверие 1)  [03E53D91]  (AR v1)
Трек  4  : извлечено точно (доверие 1)  [4379383A]  (AR v1)
Трек  5  : извлечено точно (доверие 1)  [4DB6EF08]  (AR v1)
Трек  6  : извлечено точно (доверие 1)  [0A28E23B]  (AR v1)
Трек  7  : извлечено точно (доверие 1)  [932E6EE9]  (AR v1)
Трек  8  : извлечено точно (доверие 1)  [AD90C33C]  (AR v1)
Трек  9  : извлечено точно (доверие 1)  [D0DB53C4]  (AR v1)
Трек 10  : извлечено точно (доверие 1)  [34687FD1]  (AR v1)
Трек 11  : извлечено точно (доверие 1)  [C4B85C33]  (AR v1)
Трек 12  : извлечено точно (доверие 1)  [3E492042]  (AR v1)
Трек 13  : извлечено точно (доверие 1)  [92C6AAA8]  (AR v1)
Трек 14  : извлечено точно (доверие 1)  [4E21DA94]  (AR v1)
Трек 15  : извлечено точно (доверие 1)  [E5936AD0]  (AR v1)
Трек 16  : извлечено точно (доверие 1)  [682D044E]  (AR v1)
Трек 17  : извлечено точно (доверие 1)  [D686F461]  (AR v1)
Все треки извлечены точно
Конец отчёта
---- CUETools DB Plugin V2.1.6
[CTDB TOCID: zPhrYNhH02j8egex1uL2Ve.wa2k-] found
Submit result: zPhrYNhH02j8egex1uL2Ve.wa2k- has been confirmed
Track | CTDB Status
  1   | (1/1) Accurately ripped
  2   | (1/1) Accurately ripped
  3   | (1/1) Accurately ripped
  4   | (1/1) Accurately ripped
  5   | (1/1) Accurately ripped
  6   | (1/1) Accurately ripped
  7   | (1/1) Accurately ripped
  8   | (1/1) Accurately ripped
  9   | (1/1) Accurately ripped
 10   | (1/1) Accurately ripped
 11   | (1/1) Accurately ripped
 12   | (1/1) Accurately ripped
 13   | (1/1) Accurately ripped
 14   | (1/1) Accurately ripped
 15   | (1/1) Accurately ripped
 16   | (1/1) Accurately ripped
 17   | (1/1) Accurately ripped
==== Контрольная сумма отчёта B6776ABC3D0750D5B078BAE38649AFD18B9FA5E2AEFC9FC3CE654EA0472397DC ====

Код:
[url=https://a.radikal.ru/a25/1905/3f/01bce7e8824d.png][img]https://a.radikal.ru/a25/1905/3f/01bce7e8824dt.jpg[/img][/url]
Правила, инструкции, FAQ!!!
Торрент  Добавлен [26 май 2019, 07:52] Скачать торрент Магнет ссылка
Скачать торрент
[ Размер 18.22 КБ / Просмотров 7 ]

Статус
Проверен 
 
Размер  444.02 МБ
Приватный: Нет (DHT включён)
.torrent скачан  0
Как залить торрент? | Как скачать Torrent? | Ошибка в торренте? Качайте магнет  


     Отправить личное сообщение
   
Страница 1 из 1


Сейчас этот форум просматривают: нет зарегистрированных пользователей и гости: 0


Вы не можете начинать темы
Вы не можете отвечать на сообщения
Вы не можете редактировать свои сообщения
Вы не можете удалять свои сообщения
Вы не можете добавлять вложения

Перейти:  
Ресурс не предоставляет электронные версии произведений, а занимается лишь коллекционированием и каталогизацией ссылок, присылаемых и публикуемых на форуме нашими читателями. Если вы являетесь правообладателем какого-либо представленного материала и не желаете чтобы ссылка на него находилась в нашем каталоге, свяжитесь с нами и мы незамедлительно удалим её. Файлы для обмена на трекере предоставлены пользователями сайта, и администрация не несёт ответственности за их содержание. Просьба не заливать файлы, защищенные авторскими правами, а также файлы нелегального содержания!