Статистика раздачи
Размер: 3.36 ГБ | Добавлен: 14 май 2019, 15:27 | Скачали: 1
Сидеров: 1  [0 байт/сек]    Личеров: 2  [0 байт/сек]
Пред. тема | След. тема 

Автор
Сообщение

СообщениеДобавлено: 14 май 2019, 15:27 

Lorraine Hunt Lieberson & Harry Bicket
Orchestra Of The Age Of Enlightenment
Handel Arias


Формат записи/Источник записи: [SACD-R][OF]
Наличие водяных знаков: Нет
Год издания/переиздания диска: 2004
Жанр: Classical/Vocal/Orchestral
Издатель (лейбл): Avie
Продолжительность: 01:06:26
Наличие сканов в содержимом раздачи: Да (сканы)
Треклист:
Theodora
1. Ah! Whither should we fly, or fly from whom?. 0:49
2. As with rosy steps the morn. 8:19
3. O bright example of all goodness!. 0:31
4. Bane of virtue, nurse of passions. 6:11
5. The clouds begin to veil the hemisphere. 0:48
6. Defend her Heav’n!. 5:38
7. Lord, to Thee each night and day. 6:06
8. She’s gone, disdaining liberty and life. 0:49
9. New scenes of joy. 5:35
La Lucrezia
10. O Numi eterni! O stelle, stelle!. 1:12
11. Già superbo, del mio affano. 5:33
12. Ma voi forse nel cielo. 1:04
13. Il suol che preme, l’aura che spira. 3:40
14. Ah! che ancor nell’abisso. 1:45
15. Alla salma infedel porga la pena. 4:08
16. A voi, a voi, padre, consorte. 1:24
17. Già nel seno comincia a compir. 2:05
Serse
18. Se bramate d’amar, chi vi sdegna. 6:39
19. Frondi tenere e belle. 0:45
20. Ombra mai fù. 3:09
Lorraine Hunt Lieberson, mezzo-soprano
Harry Bicket, conductor
Orchestra Of The Age Of Enlightenment
Stephen Stubbs, lute
Phoebe Carrai, cello
Margriet Tindermans, viola da Gamba
Контейнер: ISO (*.iso)
Тип рипа: image
Разрядность: 64(2,8 MHz/1 Bit)
Формат: DST64
Количество каналов: 5.0, 2.0
Доп. информация: Recorded 24 and 26 August 2003, Blackheath Halls, London (tracks 1-9, 18-20); 18-21 March 2004, Concert Hall of the King Center at the Auraria Higher Education Center, Denver (tracks 10-17).
Engineer – Everett Porter
Producer – Nicholas Parker
Ⓟ & Ⓒ 2004 G & H Music Ltd.
Avie Records ‎– AV 0030
Источник (релизер): Спасибо v3f3a3 за предоставленный материал.
https://www.amazon.com/Lorraine-Hunt-Lieberson-Handel-Arias/dp/B00022LZW8
Код:
foobar2000 1.3.13 / Замер динамического диапазона (DR) 1.1.1
Дата отчёта:  2019-04-20 06:58:13
--------------------------------------------------------------------------------
Анализ:   Lorraine Hunt Lieberson & Harry Bicket / Handel Arias
--------------------------------------------------------------------------------
DR         Пики         RMS           Продолжительность трека
--------------------------------------------------------------------------------
DR13     -14.96 дБ   -31.91 дБ      0:49 01-Ah! Whither should we fly
DR16      -6.96 дБ   -31.17 дБ      8:17 02-As with rosy steps
DR12     -13.72 дБ   -31.59 дБ      0:32 03-O bright example of all goodness!
DR16      -6.25 дБ   -29.71 дБ      6:11 04-Bane of virtue, nurse of passions
DR13     -13.57 дБ   -31.93 дБ      0:48 05-The clouds begin to veil the hemisphere
DR16      -6.68 дБ   -30.62 дБ      5:38 06-Defend her Heav'n!
DR15      -7.68 дБ   -30.48 дБ      6:06 07-Lord, to Thee each night and day
DR11     -10.81 дБ   -32.13 дБ      0:50 08-She's gone, disdaining liberty and life
DR14      -9.51 дБ   -30.62 дБ      5:37 09-New scenes of joy
DR14      -8.51 дБ   -28.11 дБ      1:11 10-O Numi eterni!
DR15      -8.97 дБ   -29.29 дБ      5:33 11-Giа superbo, del mio affanno
DR13     -11.93 дБ   -30.37 дБ      1:05 12-Ma voi forse nel cielo
DR16      -4.33 дБ   -28.21 дБ      3:41 13-Il suol che preme
DR16      -6.25 дБ   -27.90 дБ      1:46 14-Ah! che ancor nell'abisso
DR14      -8.84 дБ   -29.67 дБ      4:07 15-Alla salma infedel porga la pena
DR12     -14.66 дБ   -30.26 дБ      1:26 16-A voi, a voi, padre, con
DR16      -5.51 дБ   -28.66 дБ      2:06 17-Giа nel seno comincia a compir
DR16      -3.71 дБ   -28.55 дБ      6:39 18-Se bramate d'amar
DR13     -10.45 дБ   -30.20 дБ      0:45 19-Frondi tenere e belle
DR13     -11.23 дБ   -31.13 дБ      3:18 20-Ombra mai fщ
--------------------------------------------------------------------------------
Количество треков: 20
Реальные значения DR: DR14
Частота:   2822400 Гц / Частота PCM: 176400 Гц
Каналов:   5
Разрядность:   24
Битрейт:   14112 кбит/с
Кодек:   DST64
================================================================================
--------------------------------------------------------------------------------
Анализ:   Lorraine Hunt Lieberson & Harry Bicket / Handel Arias
--------------------------------------------------------------------------------
DR         Пики         RMS           Продолжительность трека
--------------------------------------------------------------------------------
DR14     -14.83 дБ   -31.03 дБ      0:49 01-Ah! Whither should we fly
DR18      -8.59 дБ   -30.23 дБ      8:17 02-As with rosy steps
DR11     -15.30 дБ   -30.71 дБ      0:32 03-O bright example of all goodness!
DR17      -6.45 дБ   -28.50 дБ      6:11 04-Bane of virtue, nurse of passions
DR13     -15.25 дБ   -31.14 дБ      0:48 05-The clouds begin to veil the hemisphere
DR17      -8.62 дБ   -29.58 дБ      5:38 06-Defend her Heav'n!
DR16     -10.85 дБ   -29.39 дБ      6:06 07-Lord, to Thee each night and day
DR11     -18.09 дБ   -31.34 дБ      0:50 08-She's gone, disdaining liberty and life
DR15     -11.19 дБ   -29.61 дБ      5:37 09-New scenes of joy
DR13      -7.59 дБ   -26.17 дБ      1:11 10-O Numi eterni!
DR16      -7.20 дБ   -27.72 дБ      5:33 11-Giа superbo, del mio affanno
DR13     -12.93 дБ   -28.96 дБ      1:05 12-Ma voi forse nel cielo
DR16      -5.74 дБ   -26.59 дБ      3:41 13-Il suol che preme
DR15      -5.08 дБ   -26.10 дБ      1:46 14-Ah! che ancor nell'abisso
DR15      -9.18 дБ   -28.09 дБ      4:07 15-Alla salma infedel porga la pena
DR12     -14.35 дБ   -28.69 дБ      1:26 16-A voi, a voi, padre, con
DR16      -5.27 дБ   -27.08 дБ      2:06 17-Giа nel seno comincia a compir
DR16      -5.64 дБ   -27.20 дБ      6:39 18-Se bramate d'amar
DR14      -9.56 дБ   -28.94 дБ      0:45 19-Frondi tenere e belle
DR15     -11.81 дБ   -30.12 дБ      3:18 20-Ombra mai fщ
--------------------------------------------------------------------------------
Количество треков: 20
Реальные значения DR: DR15
Частота:   2822400 Гц / Частота PCM: 176400 Гц
Каналов:   2
Разрядность:   24
Битрейт:   5645 кбит/с
Кодек:   DST64
================================================================================
Правила, инструкции, FAQ!!!
Торрент  Добавлен [14 май 2019, 15:27] Скачать торрент Магнет ссылка
Скачать торрент
[ Размер 68.56 КБ / Просмотров 9 ]

Статус
Проверен 
 
Размер  3.36 ГБ
Приватный: Нет (DHT включён)
.torrent скачан  1
Как залить торрент? | Как скачать Torrent? | Ошибка в торренте? Качайте магнет  


     Отправить личное сообщение
   
Страница 1 из 1


Сейчас этот форум просматривают: нет зарегистрированных пользователей и гости: 0


Вы не можете начинать темы
Вы не можете отвечать на сообщения
Вы не можете редактировать свои сообщения
Вы не можете удалять свои сообщения
Вы не можете добавлять вложения

Перейти:  
Ресурс не предоставляет электронные версии произведений, а занимается лишь коллекционированием и каталогизацией ссылок, присылаемых и публикуемых на форуме нашими читателями. Если вы являетесь правообладателем какого-либо представленного материала и не желаете чтобы ссылка на него находилась в нашем каталоге, свяжитесь с нами и мы незамедлительно удалим её. Файлы для обмена на трекере предоставлены пользователями сайта, и администрация не несёт ответственности за их содержание. Просьба не заливать файлы, защищенные авторскими правами, а также файлы нелегального содержания!