Начать новую тему Ответить на тему
Статистика раздачи
Размер: 319.94 МБ | Добавлен: 05 сен 2015, 23:17 | Скачали: 9
Сидеров: 78  [0 байт/сек]    Личеров: 4  [0 байт/сек]
Пред. тема | След. тема 

Автор
Сообщение

СообщениеДобавлено: 05 сен 2015, 23:17 

Ответить с цитатой 

Tony Bennett & Lady Gaga - Cheek To Cheek (2014)

18 tracks version
Лейбл: Streamline/Columbia/RPM/Interscope Records
Каталог: 0602537998845
Год: 2014
Жанр: Jazz
Продолжительность: 00:53:34

Кодек: FLAC (image+.cue)
Битрейт: Lossless

Треклист:
01. Anything Goes
02. Cheek To Cheek
03. Don't Wait Too Long
04. I Can't Give You Anything But Love
05. Nature Boy
06. Goody Goody
07. Ev'ry Time We Say Goodbye
08. Firefly
09. I Won't Dance
10. They All Laughed
11. Lush Life
12. Sophisticated Lady
13. Let's Face The Music And Dance
14. But Beautiful
15. It Don't Mean A Thing (If It Ain't Got That Swing)
16. On A Clear Day (You Can See Forever)
17. Bewitched Bothered And Bewildered
18. The Lady Is A Tramp
Код:
Код:
Exact Audio Copy V0.99 prebeta 5 from 4. May 2009

EAC extraction logfile from 24. September 2014, 16:52

Tony Bennett & Lady Gaga / Cheek To Cheek

Used drive  : PIONEER BD-RW   BDR-208D   Adapter: 0  ID: 1

Read mode               : Secure
Utilize accurate stream : Yes
Defeat audio cache      : Yes
Make use of C2 pointers : No

Read offset correction                      : 667
Overread into Lead-In and Lead-Out          : No
Fill up missing offset samples with silence : Yes
Delete leading and trailing silent blocks   : No
Null samples used in CRC calculations       : Yes
Used interface                              : Native Win32 interface for Win NT & 2000

Used output format : Internal WAV Routines
Sample format      : 44.100 Hz; 16 Bit; Stereo

TOC of the extracted CD

     Track |   Start  |  Length  | Start sector | End sector
    ---------------------------------------------------------
        1  |  0:00.00 |  2:03.73 |         0    |     9297
        2  |  2:03.73 |  2:50.41 |      9298    |    22088
        3  |  4:54.39 |  2:36.20 |     22089    |    33808
        4  |  7:30.59 |  3:13.23 |     33809    |    48306
        5  | 10:44.07 |  4:08.32 |     48307    |    66938
        6  | 14:52.39 |  2:11.62 |     66939    |    76825
        7  | 17:04.26 |  3:10.22 |     76826    |    91097
        8  | 20:14.48 |  1:57.48 |     91098    |    99920
        9  | 22:12.21 |  3:56.54 |     99921    |   117674
       10  | 26:09.00 |  1:48.42 |    117675    |   125816
       11  | 27:57.42 |  4:14.52 |    125817    |   144918
       12  | 32:12.19 |  3:49.34 |    144919    |   162127
       13  | 36:01.53 |  2:06.57 |    162128    |   171634
       14  | 38:08.35 |  4:04.06 |    171635    |   189940
       15  | 42:12.41 |  2:23.30 |    189941    |   200695
       16  | 44:35.71 |  2:34.12 |    200696    |   212257
       17  | 47:10.08 |  3:07.12 |    212258    |   226294
       18  | 50:17.20 |  3:16.73 |    226295    |   241067

Range status and errors

Selected range

     Filename D:\TORRENT_NEW\Tony Bennett & Lady GaGa - Cheek To Cheek (18 tracks version) - 2014 [NNM-Club]\Tony Bennett & Lady Gaga - Cheek To Cheek.wav

     Peak level 98.3 %
     Range quality 100.0 %
     Test CRC 54B0BFF1
     Copy CRC 54B0BFF1
     Copy OK

No errors occurred

AccurateRip summary

Track  1  not present in database
Track  2  not present in database
Track  3  not present in database
Track  4  not present in database
Track  5  not present in database
Track  6  not present in database
Track  7  not present in database
Track  8  not present in database
Track  9  not present in database
Track 10  not present in database
Track 11  not present in database
Track 12  not present in database
Track 13  not present in database
Track 14  not present in database
Track 15  not present in database
Track 16  not present in database
Track 17  not present in database
Track 18  not present in database

None of the tracks are present in the AccurateRip database

End of status report
Код:
Код:
-----------------------

DON'T MODIFY THIS FILE

-----------------------

PERFORMER: auCDtect Task Manager, ver. 1.5.1RC4 build 1.5.1.5
Copyright (c) 2008-2010 y-soft. All rights reserved
http:/y-soft.org

ANALYZER: auCDtect: CD records authenticity detector, version 0.8.2
Copyright (c) 2004 Oleg Berngardt. All rights reserved.
Copyright (c) 2004 Alexander Djourik. All rights reserved.

FILE: Tony Bennett & Lady Gaga - Cheek To Cheek.flac
  Size: 335275427 Hash: 78DF3FAD12754F6CB3D1EDF40144F1A8 Accuracy: -m0
  Conclusion: CDDA 100%
  Signature: 2FEBF2B8F36113D97270AA750694F222689AE1D1
Код:
Код:
REM GENRE Swing
REM DATE 2014
REM DISCID F80C8E12
REM COMMENT "ExactAudioCopy v0.99pb5"
PERFORMER "Tony Bennett & Lady Gaga"
TITLE "Cheek To Cheek"
FILE "Tony Bennett & Lady Gaga - Cheek To Cheek.flac" WAVE
  TRACK 01 AUDIO
    TITLE "Anything Goes"
    PERFORMER "Tony Bennett & Lady Gaga"
    INDEX 01 00:00:00
  TRACK 02 AUDIO
    TITLE "Cheek To Cheek"
    PERFORMER "Tony Bennett & Lady Gaga"
    INDEX 01 02:03:73
  TRACK 03 AUDIO
    TITLE "Don't Wait Too Long"
    PERFORMER "Tony Bennett & Lady Gaga"
    INDEX 01 04:54:39
  TRACK 04 AUDIO
    TITLE "I Can't Give You Anything But Love"
    PERFORMER "Tony Bennett & Lady Gaga"
    INDEX 01 07:30:59
  TRACK 05 AUDIO
    TITLE "Nature Boy"
    PERFORMER "Tony Bennett & Lady Gaga"
    INDEX 01 10:44:07
  TRACK 06 AUDIO
    TITLE "Goody Goody"
    PERFORMER "Tony Bennett & Lady Gaga"
    INDEX 01 14:52:39
  TRACK 07 AUDIO
    TITLE "Ev'ry Time We Say Goodbye"
    PERFORMER "Tony Bennett & Lady Gaga"
    INDEX 01 17:04:26
  TRACK 08 AUDIO
    TITLE "Firefly"
    PERFORMER "Tony Bennett & Lady Gaga"
    INDEX 01 20:14:48
  TRACK 09 AUDIO
    TITLE "I Won't Dance"
    PERFORMER "Tony Bennett & Lady Gaga"
    INDEX 01 22:12:21
  TRACK 10 AUDIO
    TITLE "They All Laughed"
    PERFORMER "Tony Bennett & Lady Gaga"
    INDEX 01 26:09:00
  TRACK 11 AUDIO
    TITLE "Lush Life"
    PERFORMER "Tony Bennett & Lady Gaga"
    INDEX 01 27:57:42
  TRACK 12 AUDIO
    TITLE "Sophisticated Lady"
    PERFORMER "Tony Bennett & Lady Gaga"
    INDEX 01 32:12:19
  TRACK 13 AUDIO
    TITLE "Let's Face The Music And Dance"
    PERFORMER "Tony Bennett & Lady Gaga"
    INDEX 01 36:01:53
  TRACK 14 AUDIO
    TITLE "But Beautiful"
    PERFORMER "Tony Bennett & Lady Gaga"
    INDEX 01 38:08:35
  TRACK 15 AUDIO
    TITLE "It Don't Mean A Thing (If It Ain't Got That Swing)"
    PERFORMER "Tony Bennett & Lady Gaga"
    INDEX 01 42:12:41
  TRACK 16 AUDIO
    TITLE "On A Clear Day (You Can See Forever)"
    PERFORMER "Tony Bennett & Lady Gaga"
    INDEX 01 44:35:71
  TRACK 17 AUDIO
    TITLE "Bewitched, Bothered And Bewildered"
    PERFORMER "Tony Bennett & Lady Gaga"
    INDEX 01 47:10:08
  TRACK 18 AUDIO
    TITLE "The Lady Is A Tramp"
    PERFORMER "Tony Bennett & Lady Gaga"
    INDEX 01 50:17:20
Правила, инструкции, FAQ!!!
Торрент  Добавлен [05 сен 2015, 23:17] Скачать торрент Магнет ссылка
Скачать торрент
[ Размер 13.6 КБ / Просмотров 103 ]

Статус
Проверен 
 
Размер  319.94 МБ
Приватный: Нет (DHT включён)
.torrent скачан  9
Как залить торрент? | Как скачать Torrent? | Ошибка в торренте? Качайте магнет  


     Отправить личное сообщение
   
Страница 1 из 1
Показать сообщения за:  Поле сортировки  
Начать новую тему Ответить на тему


Сейчас этот форум просматривают: нет зарегистрированных пользователей и гости: 0


Вы не можете начинать темы
Вы не можете отвечать на сообщения
Вы не можете редактировать свои сообщения
Вы не можете удалять свои сообщения
Вы не можете добавлять вложения

Перейти:  
Ресурс не предоставляет электронные версии произведений, а занимается лишь коллекционированием и каталогизацией ссылок, присылаемых и публикуемых на форуме нашими читателями. Если вы являетесь правообладателем какого-либо представленного материала и не желаете чтобы ссылка на него находилась в нашем каталоге, свяжитесь с нами и мы незамедлительно удалим её. Файлы для обмена на трекере предоставлены пользователями сайта, и администрация не несёт ответственности за их содержание. Просьба не заливать файлы, защищенные авторскими правами, а также файлы нелегального содержания!