Начать новую тему Ответить на тему
Статистика раздачи
Размер: 992.29 МБ | Добавлен: 23 май 2019, 20:01 | Скачали: 0
Сидеров: 1  [0 байт/сек]    Личеров: 0  [0 байт/сек]
Пред. тема | След. тема 

Автор
Сообщение

СообщениеДобавлено: 23 май 2019, 20:01 

Ответить с цитатой 

Various Artists - German Techno Classics (2 CD)
Жанр: Techno-Pop
Год выпуска диска: 2002
Производитель диска: Germany - ZYX
Аудио кодек: APE
Тип рипа: image+.cue
Битрейт аудио: lossless
Продолжительность: 1:16:53+1:13:38
Трэклист:
CD 1:
01. Klangwerk - Die Kybernauten 6:55
02. Sven Vath
- Dein Schweiss (Radio Edit) 3:39
03. Avionique - Die Schallmauer (Mach I) 7:27
04. Ldc - Die Schwarze Zone 4:00
05. Moskwa TV - Generator 7/8 6:19
06. Off - Electrica Salsa 4:47
07. Frost vs.Coolcut - The Monkey (Stompin' Monkey Mix) 5:48
08. E Nomine - Vater Unser 3:35
09. Aquagen - Ihr Seid So Leise ! (Geht Ab-Mix) 7:45
10. 16 Bit - Where Are You 5:49
11. Abfahrt - Alone It's Me 5:45
12. Zombie Nation - Kernkraft 400 4:47
13. 3 Phase feat.Dr.Motte - Klang der Familie (Original) 6:38
14. Dj Shah - Commandments (Die 10 Gebote) (Radio Mix-German Version) 3:43
CD 2:
01. Off - Bad News (Album Version) 5:06
02. Out Of The Ordinary - Play It Again 7:00
03. Dark A.T.8 - Was Guckst Du Lan ? 5:34
04. 2 X-Treme - Der General 6:17
05. Tragic Error - Tanzen 5:44
06. E Nomine - E Nomine (Denn Sie Wissen Nicht Was Sie Tun) 3:44
07. Dj Darkzone - Des Teufels Antwort (Hollenheib Mix) 7:43
08. Die Kreuzritter - Der Komtur 3:41
09. Robotiko Rejekto - Rejekto (Perfecto Mix) 3:31
10. Mdma - E-Shopping (Phenomania Rmx) 4:59
11. Interactive - Who is Elvis 5:36
12. T.I.B.E.T. - ... Und Tanzen (Radio Edit) 4:07
13. Weichei - Is Dir Su Hart ? 3:36
14. Cihan Gungor - Uultra Hart (Uultra Hart Mix) 7:03
Доп.информация:
Абсолютно все рипы сделаны с оригинальных CD из моей коллекции !!!
Полные сканы обложек и дисков прилагаются !!!
Exact Audio Copy V0.99 prebeta 5 from 4. May 2009
Отчёт EAC об извлечении, выполненном 21. августа 2009, 21:59
Various / German Techno Classics CD 1
Дисковод: Optiarc DVD RW AD-5200A Adapter: 0 ID: 0
Режим чтения : Достоверность
Использование точного потока : Да
Отключение кэша аудио : Да
Использование указателей C2 : Нет
Коррекция смещения при чтении : 48
Способность читать области Lead-in и Lead-out : Нет
Заполнение пропущенных сэмплов тишиной : Да
Удаление блоков с тишиной в начале и конце : Нет
При вычислениях CRC использовались нулевые сэмплы : Да
Интерфейс : Установленный внешний ASPI-интерфейс
Выходной формат : Внутренние WAV-операции
Формат сэмплов : 44.100 Гц; 16 бит; стерео
TOC извлечённого CD
Трек | Старт | Длительность | Начальный сектор | Конечный сектор
---------------------------------------------------------------------
1 | 0:00.00 | 6:54.70 | 0 | 31119
2 | 6:54.70 | 3:38.58 | 31120 | 47527
3 | 10:33.53 | 7:26.40 | 47528 | 81017
4 | 18:00.18 | 4:00.19 | 81018 | 99036
5 | 22:00.37 | 6:18.58 | 99037 | 127444
6 | 28:19.20 | 4:46.64 | 127445 | 148958
7 | 33:06.09 | 5:47.70 | 148959 | 175053
8 | 38:54.04 | 3:34.50 | 175054 | 191153
9 | 42:28.54 | 7:44.42 | 191154 | 225995
10 | 50:13.21 | 5:48.59 | 225996 | 252154
11 | 56:02.05 | 5:44.67 | 252155 | 278021
12 | 61:46.72 | 4:46.64 | 278022 | 299535
13 | 66:33.61 | 6:37.47 | 299536 | 329357
14 | 73:11.33 | 3:42.60 | 329358 | 346067
Характеристики диапазона извлечения и сообщения об ошибках
Выбранный диапазон
Имя файла E:\Torrents.Ru - Projects\0 Various - German Techno Classics\Various - German Techno Classics\German Techno Classics CD 1\Various - German Techno Classics CD 1.wav
Пиковый уровень 99.9 %
Качество диапазона 100.0 %
CRC теста 39A39B33
CRC копии 39A39B33
Копирование... OK
Ошибок не произошло
AccurateRip: сводка
Трек 1 точное извлечение (доверие 1) [62137C8C]
Трек 2 точное извлечение (доверие 1) [663A6173]
Трек 3 точное извлечение (доверие 1) [3CFE25D6]
Трек 4 точное извлечение (доверие 1) [49577067]
Трек 5 точное извлечение (доверие 1) [C29A947F]
Трек 6 точное извлечение (доверие 1) [CB124AF1]
Трек 7 точное извлечение (доверие 1) [3FC8D3A5]
Трек 8 точное извлечение (доверие 1) [1B94652E]
Трек 9 точное извлечение (доверие 1) [C27C3CD6]
Трек 10 точное извлечение (доверие 1) [746CE4CC]
Трек 11 точное извлечение (доверие 1) [D7046FD7]
Трек 12 точное извлечение (доверие 1) [44E85DC8]
Трек 13 точное извлечение (доверие 1) [12D761E4]
Трек 14 точное извлечение (доверие 1) [89079DA2]
Все треки извлечены точно
Конец отчёта
Exact Audio Copy V0.99 prebeta 5 from 4. May 2009
Отчёт EAC об извлечении, выполненном 21. августа 2009, 23:03
Various / German Techno Classics CD 2
Дисковод: Optiarc DVD RW AD-5200A Adapter: 0 ID: 0
Режим чтения : Достоверность
Использование точного потока : Да
Отключение кэша аудио : Да
Использование указателей C2 : Нет
Коррекция смещения при чтении : 48
Способность читать области Lead-in и Lead-out : Нет
Заполнение пропущенных сэмплов тишиной : Да
Удаление блоков с тишиной в начале и конце : Нет
При вычислениях CRC использовались нулевые сэмплы : Да
Интерфейс : Установленный внешний ASPI-интерфейс
Выходной формат : Внутренние WAV-операции
Формат сэмплов : 44.100 Гц; 16 бит; стерео
TOC извлечённого CD
Трек | Старт | Длительность | Начальный сектор | Конечный сектор
---------------------------------------------------------------------
1 | 0:00.00 | 5:05.60 | 0 | 22934
2 | 5:05.60 | 6:59.60 | 22935 | 54419
3 | 12:05.45 | 5:34.24 | 54420 | 79493
4 | 17:39.69 | 6:16.62 | 79494 | 107755
5 | 23:56.56 | 5:43.69 | 107756 | 133549
6 | 29:40.50 | 3:43.71 | 133550 | 150345
7 | 33:24.46 | 7:42.56 | 150346 | 185051
8 | 41:07.27 | 3:41.00 | 185052 | 201626
9 | 44:48.27 | 3:30.65 | 201627 | 217441
10 | 48:19.17 | 4:58.68 | 217442 | 239859
11 | 53:18.10 | 5:35.70 | 239860 | 265054
12 | 58:54.05 | 4:06.42 | 265055 | 283546
13 | 63:00.47 | 3:35.52 | 283547 | 299723
14 | 66:36.24 | 7:02.53 | 299724 | 331426
Характеристики диапазона извлечения и сообщения об ошибках
Выбранный диапазон
Имя файла E:\Torrents.Ru - Projects\0 Various - German Techno Classics\Various - German Techno Classics\German Techno Classics CD 2\Various - German Techno Classics CD 2.wav
Пиковый уровень 98.8 %
Качество диапазона 100.0 %
CRC теста 8E870B0D
CRC копии 8E870B0D
Копирование... OK
Ошибок не произошло
AccurateRip: сводка
Трек 1 точное извлечение (доверие 1) [A11E49DF]
Трек 2 точное извлечение (доверие 1) [CFDA4BC6]
Трек 3 точное извлечение (доверие 1) [333978FE]
Трек 4 точное извлечение (доверие 1) [37412757]
Трек 5 точное извлечение (доверие 1) [D9509DCD]
Трек 6 точное извлечение (доверие 1) [8535D3E3]
Трек 7 точное извлечение (доверие 1) [E6029008]
Трек 8 точное извлечение (доверие 1) [59C2C94A]
Трек 9 точное извлечение (доверие 1) [C4F02575]
Трек 10 точное извлечение (доверие 1) [D2DC6451]
Трек 11 точное извлечение (доверие 1) [FFBE2238]
Трек 12 точное извлечение (доверие 1) [8635B239]
Трек 13 точное извлечение (доверие 1) [454DB4D3]
Трек 14 точное извлечение (доверие 1) [E152F37F]
Все треки извлечены точно
Конец отчёта
Various Artists - Best Of Techno Trax (2 CD)
Правила, инструкции, FAQ!!!
Торрент  Добавлен [23 май 2019, 20:01] Скачать торрент Магнет ссылка
Скачать торрент
[ Размер 21.3 КБ / Просмотров 7 ]

Статус
Проверен 
 
Размер  992.29 МБ
Приватный: Нет (DHT включён)
.torrent скачан  0
Как залить торрент? | Как скачать Torrent? | Ошибка в торренте? Качайте магнет  


     Отправить личное сообщение
   
Страница 1 из 1
Показать сообщения за:  Поле сортировки  
Начать новую тему Ответить на тему


Сейчас этот форум просматривают: нет зарегистрированных пользователей и гости: 0


Вы не можете начинать темы
Вы не можете отвечать на сообщения
Вы не можете редактировать свои сообщения
Вы не можете удалять свои сообщения
Вы не можете добавлять вложения

Перейти:  
Ресурс не предоставляет электронные версии произведений, а занимается лишь коллекционированием и каталогизацией ссылок, присылаемых и публикуемых на форуме нашими читателями. Если вы являетесь правообладателем какого-либо представленного материала и не желаете чтобы ссылка на него находилась в нашем каталоге, свяжитесь с нами и мы незамедлительно удалим её. Файлы для обмена на трекере предоставлены пользователями сайта, и администрация не несёт ответственности за их содержание. Просьба не заливать файлы, защищенные авторскими правами, а также файлы нелегального содержания!
cron