Начать новую тему Ответить на тему
Статистика раздачи
Размер: 125.17 МБ | Добавлен: 23 май 2019, 20:08 | Скачали: 0
Сидеров: 0  [0 байт/сек]    Личеров: 0  [0 байт/сек]
Пред. тема | След. тема 

Автор
Сообщение

СообщениеДобавлено: 23 май 2019, 20:08 

Ответить с цитатой 

Neo / Diskhead (Maxi CD Single)
Жанр: Techno/Breakbeat
Носитель: CDM
Страна-производитель диска: Hungary
Год издания: 2002
Издатель (лейбл): Magneoton
Номер по каталогу: 0927-46569-2
Аудиокодек: FLAC (*.flac)
Тип рипа: tracks+.cue
Битрейт аудио: lossless
Продолжительность: 00:18:30
Источник (релизер): own rip
Наличие сканов в содержимом раздачи: нет
Треклист:
1. Neo - Diskhead (Radio Edit) (3:18)
2. Neo - Diskhead (Laserbaron's Timetunnel Mix) (6:33)
3. Neo - Siskhead (Ultimate Error) (3:27)
4. Neo - Diskhead (Anorganik Rework) (6:12)
Код:
Exact Audio Copy V1.0 beta 3 from 29. August 2011
EAC extraction logfile from 8. September 2013, 14:21
Neo / Diskhead (Maxi CD Single)
Used drive  : TSSTcorpCDDVDW SN-208BB   Adapter: 0  ID: 1
Read mode               : Secure
Utilize accurate stream : Yes
Defeat audio cache      : Yes
Make use of C2 pointers : No
Read offset correction                      : 6
Overread into Lead-In and Lead-Out          : No
Fill up missing offset samples with silence : Yes
Delete leading and trailing silent blocks   : No
Null samples used in CRC calculations       : Yes
Used interface                              : Native Win32 interface for Win NT & 2000
Gap handling                                : Appended to previous track
Used output format              : User Defined Encoder
Selected bitrate                : 1024 kBit/s
Quality                         : High
Add ID3 tag                     : No
Command line compressor         : C:\Program Files (x86)\Exact Audio Copy\Flac\flac.exe
Additional command line options : -8 -V -T "artist=%artist%" -T "title=%title%" -T "album=%albumtitle%" -T "date=%year%" -T "tracknumber=%tracknr%" -T "genre=%genre%" %source%
TOC of the extracted CD
     Track |   Start  |  Length  | Start sector | End sector
    ---------------------------------------------------------
        1  |  0:00.00 |  3:18.14 |         0    |    14863
        2  |  3:18.14 |  6:32.54 |     14864    |    44317
        3  |  9:50.68 |  3:27.00 |     44318    |    59842
        4  | 13:17.68 |  6:12.67 |     59843    |    87809
Track  1
     Filename E:\Torrent\Neo - Diskhead (Maxi CD Single)\01 Diskhead (Radio Edit).wav
     Pre-gap length  0:00:02.00
     Peak level 99.1 %
     Extraction speed 1.4 X
     Track quality 99.9 %
     Test CRC D6B35073
     Copy CRC D6B35073
     Accurately ripped (confidence 1)  [262050D4]  (AR v1)
     Copy OK
Track  2
     Filename E:\Torrent\Neo - Diskhead (Maxi CD Single)\02 Diskhead (Laserbaron's Timetunnel Mix).wav
     Pre-gap length  0:00:02.30
     Peak level 98.8 %
     Extraction speed 1.8 X
     Track quality 99.9 %
     Test CRC F5EEFACF
     Copy CRC F5EEFACF
     Accurately ripped (confidence 1)  [1181D4B5]  (AR v1)
     Copy OK
Track  3
     Filename E:\Torrent\Neo - Diskhead (Maxi CD Single)\03 Siskhead (Ultimate Error).wav
     Pre-gap length  0:00:03.00
     Peak level 97.2 %
     Extraction speed 2.0 X
     Track quality 100.0 %
     Test CRC B509B088
     Copy CRC B509B088
     Accurately ripped (confidence 1)  [F469A569]  (AR v1)
     Copy OK
Track  4
     Filename E:\Torrent\Neo - Diskhead (Maxi CD Single)\04 Diskhead (Anorganik Rework).wav
     Peak level 97.2 %
     Extraction speed 2.4 X
     Track quality 100.0 %
     Test CRC 89BB955D
     Copy CRC 89BB955D
     Accurately ripped (confidence 1)  [4AB8062A]  (AR v1)
     Copy OK
All tracks accurately ripped
No errors occurred
End of status report
==== Log checksum 392ABF3598E9636F9C17A33C0ED0EC9808BD51AAEC1F569CB7B4FFF510795905 ====
Код:
REM GENRE Electronic
REM DATE 2002
REM DISCID 2D049204
REM COMMENT "ExactAudioCopy v1.0b3"
PERFORMER "Neo"
TITLE "Diskhead (Maxi CD Single)"
FILE "01 Diskhead (Radio Edit).wav" WAVE
  TRACK 01 AUDIO
    TITLE "Diskhead (Radio Edit)"
    PERFORMER "Neo"
    ISRC HUMAG2002207
    INDEX 01 00:00:00
  TRACK 02 AUDIO
    TITLE "Diskhead (Laserbaron's Timetunnel Mix)"
    PERFORMER "Neo"
    ISRC HUMAG2002208
    INDEX 00 03:15:59
FILE "02 Diskhead (Laserbaron's Timetunnel Mix).wav" WAVE
    INDEX 01 00:00:00
  TRACK 03 AUDIO
    TITLE "Siskhead (Ultimate Error)"
    PERFORMER "Neo"
    ISRC HUMAG2002209
    INDEX 00 06:29:54
FILE "03 Siskhead (Ultimate Error).wav" WAVE
    INDEX 01 00:00:00
FILE "04 Diskhead (Anorganik Rework).wav" WAVE
  TRACK 04 AUDIO
    TITLE "Diskhead (Anorganik Rework)"
    PERFORMER "Neo"
    ISRC HUMAG2002210
    INDEX 01 00:00:00
Правила, инструкции, FAQ!!!
Торрент  Добавлен [23 май 2019, 20:08] Скачать торрент Магнет ссылка
Скачать торрент
[ Размер 20.44 КБ / Просмотров 2 ]

Статус
Проверен 
 
Размер  125.17 МБ
Приватный: Нет (DHT включён)
.torrent скачан  0
Как залить торрент? | Как скачать Torrent? | Ошибка в торренте? Качайте магнет  


     Отправить личное сообщение
   
Страница 1 из 1
Показать сообщения за:  Поле сортировки  
Начать новую тему Ответить на тему


Сейчас этот форум просматривают: нет зарегистрированных пользователей и гости: 0


Вы не можете начинать темы
Вы не можете отвечать на сообщения
Вы не можете редактировать свои сообщения
Вы не можете удалять свои сообщения
Вы не можете добавлять вложения

Перейти:  
Ресурс не предоставляет электронные версии произведений, а занимается лишь коллекционированием и каталогизацией ссылок, присылаемых и публикуемых на форуме нашими читателями. Если вы являетесь правообладателем какого-либо представленного материала и не желаете чтобы ссылка на него находилась в нашем каталоге, свяжитесь с нами и мы незамедлительно удалим её. Файлы для обмена на трекере предоставлены пользователями сайта, и администрация не несёт ответственности за их содержание. Просьба не заливать файлы, защищенные авторскими правами, а также файлы нелегального содержания!
cron