Начать новую тему Ответить на тему
Статистика раздачи
Размер: 286.11 МБ | Добавлен: 11 июл 2019, 11:58 | Скачали: 1
Сидеров: 0  [0 байт/сек]    Личеров: 0  [0 байт/сек]
Пред. тема | След. тема 

Автор
Сообщение

СообщениеДобавлено: 11 июл 2019, 11:58 

Ответить с цитатой 

Nina / Sleepwalking
Жанр: Synthpop
Носитель: CD
Страна-производитель диска (релиза): UK
Год издания: 2018
Издатель (лейбл): Aztec Records
Номер по каталогу: AZT0033C
Страна исполнителя (группы): UK
Аудиокодек: FLAC (*.flac)
Тип рипа: tracks+.cue
Продолжительность: 00:47:35
Источник: Получено по обмену
Наличие сканов в содержимом раздачи: нет
Треклист:
1. Beyond Memory (05:07)
2. Born To Live (04:11)
3. Sleepwalking (04:52)
4. It Kills Me (04:35)
5. Purple Sun (04:26)
6. Empire Of Love (03:33)
7. Diamonds In The Rough (03:19)
8. One Of Us (04:28)
9. Counting Stars (04:37)
10. Your Truth (04:27)
11. 80's Girl (03:56)
Код:
Exact Audio Copy V1.0 beta 3 from 29. August 2011
EAC extraction logfile from 12. April 2019, 12:31
Nina / Sleepwalking
Used drive  : HL-DT-STBD-RE  WH14NS40   Adapter: 0  ID: 1
Read mode               : Secure
Utilize accurate stream : Yes
Defeat audio cache      : Yes
Make use of C2 pointers : No
Read offset correction                      : 6
Overread into Lead-In and Lead-Out          : No
Fill up missing offset samples with silence : Yes
Delete leading and trailing silent blocks   : No
Null samples used in CRC calculations       : Yes
Used interface                              : Native Win32 interface for Win NT & 2000
Gap handling                                : Appended to previous track
Used output format              : User Defined Encoder
Selected bitrate                : 1024 kBit/s
Quality                         : High
Add ID3 tag                     : No
Command line compressor         : C:\Program Files (x86)\Exact Audio Copy\Flac\flac.exe
Additional command line options : -8 -V -T "ARTIST=%artist%" -T "TITLE=%title%" -T "ALBUM=%albumtitle%" -T "DATE=%year%" -T "TRACKNUMBER=%tracknr%" -T "GENRE=%genre%" -T "PERFORMER=%albuminterpret%" -T "COMPOSER=%composer%" %haslyrics%--tag-from-file=LYRICS="%lyricsfile%"%haslyrics% -T "ALBUMARTIST=%albumartist%" -T "DISCNUMBER=%cdnumber%" -T "TOTALDISCS=%totalcds%" -T "TOTALTRACKS=%numtracks%" -T "COMMENT=%comment%" %source% -o %dest%
TOC of the extracted CD
     Track |   Start  |  Length  | Start sector | End sector
    ---------------------------------------------------------
        1  |  0:00.00 |  5:07.48 |         0    |    23072
        2  |  5:07.48 |  4:11.14 |     23073    |    41911
        3  |  9:18.62 |  4:52.02 |     41912    |    63813
        4  | 14:10.64 |  4:35.52 |     63814    |    84490
        5  | 18:46.41 |  4:26.58 |     84491    |   104498
        6  | 23:13.24 |  3:33.21 |    104499    |   120494
        7  | 26:46.45 |  3:19.11 |    120495    |   135430
        8  | 30:05.56 |  4:28.01 |    135431    |   155531
        9  | 34:33.57 |  4:37.69 |    155532    |   176375
       10  | 39:11.51 |  4:27.19 |    176376    |   196419
       11  | 43:38.70 |  3:56.24 |    196420    |   214143
Track  1
     Filename C:\+++ EAC Rips +++\Nina - Sleepwalking (2018)\01 - Beyond Memory.wav
     Pre-gap length  0:00:02.00
     Peak level 89.0 %
     Extraction speed 5.3 X
     Track quality 100.0 %
     Test CRC CEB2F0F6
     Copy CRC CEB2F0F6
     Accurately ripped (confidence 5)  [2CCAACAD]  (AR v2)
     Copy OK
Track  2
     Filename C:\+++ EAC Rips +++\Nina - Sleepwalking (2018)\02 - Born To Live.wav
     Peak level 91.1 %
     Extraction speed 5.7 X
     Track quality 100.0 %
     Test CRC 474C872F
     Copy CRC 474C872F
     Accurately ripped (confidence 5)  [1B857A75]  (AR v2)
     Copy OK
Track  3
     Filename C:\+++ EAC Rips +++\Nina - Sleepwalking (2018)\03 - Sleepwalking.wav
     Peak level 91.5 %
     Extraction speed 6.3 X
     Track quality 100.0 %
     Test CRC C6D77B7B
     Copy CRC C6D77B7B
     Accurately ripped (confidence 5)  [222716E8]  (AR v2)
     Copy OK
Track  4
     Filename C:\+++ EAC Rips +++\Nina - Sleepwalking (2018)\04 - It Kills Me.wav
     Peak level 93.8 %
     Extraction speed 6.7 X
     Track quality 100.0 %
     Test CRC 6580FF15
     Copy CRC 6580FF15
     Accurately ripped (confidence 5)  [AFE6F118]  (AR v2)
     Copy OK
Track  5
     Filename C:\+++ EAC Rips +++\Nina - Sleepwalking (2018)\05 - Purple Sun.wav
     Peak level 94.1 %
     Extraction speed 7.0 X
     Track quality 100.0 %
     Test CRC 1C70E80B
     Copy CRC 1C70E80B
     Accurately ripped (confidence 5)  [6B8385E9]  (AR v2)
     Copy OK
Track  6
     Filename C:\+++ EAC Rips +++\Nina - Sleepwalking (2018)\06 - Empire Of Love.wav
     Peak level 93.8 %
     Extraction speed 7.1 X
     Track quality 100.0 %
     Test CRC CE9BC95F
     Copy CRC CE9BC95F
     Accurately ripped (confidence 5)  [7BC893C8]  (AR v2)
     Copy OK
Track  7
     Filename C:\+++ EAC Rips +++\Nina - Sleepwalking (2018)\07 - Diamonds In The Rough.wav
     Peak level 92.8 %
     Extraction speed 7.4 X
     Track quality 100.0 %
     Test CRC 08A4254A
     Copy CRC 08A4254A
     Accurately ripped (confidence 5)  [62A83869]  (AR v2)
     Copy OK
Track  8
     Filename C:\+++ EAC Rips +++\Nina - Sleepwalking (2018)\08 - One Of Us.wav
     Peak level 91.2 %
     Extraction speed 7.9 X
     Track quality 100.0 %
     Test CRC 37674BBC
     Copy CRC 37674BBC
     Accurately ripped (confidence 5)  [4A17776C]  (AR v2)
     Copy OK
Track  9
     Filename C:\+++ EAC Rips +++\Nina - Sleepwalking (2018)\09 - Counting Stars.wav
     Peak level 93.0 %
     Extraction speed 8.2 X
     Track quality 100.0 %
     Test CRC EF2453F7
     Copy CRC EF2453F7
     Accurately ripped (confidence 5)  [3BA78B9B]  (AR v2)
     Copy OK
Track 10
     Filename C:\+++ EAC Rips +++\Nina - Sleepwalking (2018)\10 - Your Truth.wav
     Peak level 93.7 %
     Extraction speed 7.1 X
     Track quality 99.9 %
     Test CRC 1CE9EA5D
     Copy CRC 1CE9EA5D
     Accurately ripped (confidence 5)  [7C79117E]  (AR v2)
     Copy OK
Track 11
     Filename C:\+++ EAC Rips +++\Nina - Sleepwalking (2018)\11 - 80's Girl.wav
     Peak level 94.3 %
     Extraction speed 8.7 X
     Track quality 100.0 %
     Test CRC 70EC62F1
     Copy CRC 70EC62F1
     Accurately ripped (confidence 5)  [95F349A1]  (AR v2)
     Copy OK
All tracks accurately ripped
No errors occurred
End of status report
==== Log checksum 3865FA238A201FC6AA546B8EB6E69EDD324298B51B3FCA07EEFB69215244BA06 ====
Код:
REM GENRE Synthpop
REM DATE 2018
REM DISCID 8A0B270B
REM COMMENT "ExactAudioCopy v1.0b3"
FILE "01 - Beyond Memory.wav" WAVE
  TRACK 01 AUDIO
    INDEX 01 00:00:00
FILE "02 - Born To Live.wav" WAVE
  TRACK 02 AUDIO
    INDEX 01 00:00:00
FILE "03 - Sleepwalking.wav" WAVE
  TRACK 03 AUDIO
    INDEX 01 00:00:00
FILE "04 - It Kills Me.wav" WAVE
  TRACK 04 AUDIO
    INDEX 01 00:00:00
FILE "05 - Purple Sun.wav" WAVE
  TRACK 05 AUDIO
    INDEX 01 00:00:00
FILE "06 - Empire Of Love.wav" WAVE
  TRACK 06 AUDIO
    INDEX 01 00:00:00
FILE "07 - Diamonds In The Rough.wav" WAVE
  TRACK 07 AUDIO
    INDEX 01 00:00:00
FILE "08 - One Of Us.wav" WAVE
  TRACK 08 AUDIO
    INDEX 01 00:00:00
FILE "09 - Counting Stars.wav" WAVE
  TRACK 09 AUDIO
    INDEX 01 00:00:00
FILE "10 - Your Truth.wav" WAVE
  TRACK 10 AUDIO
    INDEX 01 00:00:00
FILE "11 - 80's Girl.wav" WAVE
  TRACK 11 AUDIO
    INDEX 01 00:00:00
Правила, инструкции, FAQ!!!
Торрент  Добавлен [11 июл 2019, 11:58] Скачать торрент Магнет ссылка
Скачать торрент
[ Размер 12.39 КБ / Просмотров 8 ]

Статус
Проверен 
 
Размер  286.11 МБ
Приватный: Нет (DHT включён)
.torrent скачан  1
Как залить торрент? | Как скачать Torrent? | Ошибка в торренте? Качайте магнет  


     Отправить личное сообщение
   
Страница 1 из 1
Показать сообщения за:  Поле сортировки  
Начать новую тему Ответить на тему


Сейчас этот форум просматривают: нет зарегистрированных пользователей и гости: 0


Вы не можете начинать темы
Вы не можете отвечать на сообщения
Вы не можете редактировать свои сообщения
Вы не можете удалять свои сообщения
Вы не можете добавлять вложения

Перейти:  
Ресурс не предоставляет электронные версии произведений, а занимается лишь коллекционированием и каталогизацией ссылок, присылаемых и публикуемых на форуме нашими читателями. Если вы являетесь правообладателем какого-либо представленного материала и не желаете чтобы ссылка на него находилась в нашем каталоге, свяжитесь с нами и мы незамедлительно удалим её. Файлы для обмена на трекере предоставлены пользователями сайта, и администрация не несёт ответственности за их содержание. Просьба не заливать файлы, защищенные авторскими правами, а также файлы нелегального содержания!
cron