Начать новую тему Ответить на тему
Статистика раздачи
Размер: 216.05 МБ | Добавлен: 11 июл 2019, 11:58 | Скачали: 1
Сидеров: 0  [0 байт/сек]    Личеров: 2  [0 байт/сек]
Пред. тема | След. тема 

Автор
Сообщение

СообщениеДобавлено: 11 июл 2019, 11:58 

Ответить с цитатой 

Magas / Friends Forever
Жанр: Synthpop, Electronic, Minimal Synth
Носитель: CD
Страна-производитель диска (релиза): USA
Год издания: 2003
Издатель (лейбл): Ersatz Audio
Номер по каталогу: EZCD-25
Аудиокодек: FLAC (*.flac)
Тип рипа: tracks+.cue
Продолжительность: 00:39:32
Источник: Получено по обмену
Наличие сканов в содержимом раздачи: да
Треклист:
1. Blind Contact (03:41)
2. Dead Quasars (03:31)
3. Toys (Redux) (03:29)
4. Pocket Racers (03:27)
5. Hard To Detect (03:38)
6. This Is How We Do It (03:10)
7. Lovecompressor (03:15)
8. Klub 99 (04:44)
9. Cheaper & Slower (03:33)
10. Into The Void (03:15)
11. Too Much Fear (03:42)
Код:
Exact Audio Copy V1.3 from 2. September 2016
EAC extraction logfile from 5. April 2019, 10:51
Magas / Friends Forever
Used drive  : HL-DT-STBD-RE  WH14NS40   Adapter: 1  ID: 0
Read mode               : Secure
Utilize accurate stream : Yes
Defeat audio cache      : Yes
Make use of C2 pointers : No
Read offset correction                      : 6
Overread into Lead-In and Lead-Out          : No
Fill up missing offset samples with silence : Yes
Delete leading and trailing silent blocks   : No
Null samples used in CRC calculations       : Yes
Used interface                              : Native Win32 interface for Win NT & 2000
Gap handling                                : Appended to previous track
Used output format              : User Defined Encoder
Selected bitrate                : 1024 kBit/s
Quality                         : High
Add ID3 tag                     : No
Command line compressor         : C:\Program Files (x86)\Exact Audio Copy\Flac\flac.exe
Additional command line options : -8 -e -p -V -T "ARTIST=%artist%" -T "TITLE=%title%" -T "ALBUM=%albumtitle%" -T "DATE=%year%" -T "TRACKNUMBER=%tracknr%" -T "GENRE=%genre%" -T "PERFORMER=%albuminterpret%" -T "COMPOSER=%composer%" %haslyrics%--tag-from-file=LYRICS="%lyricsfile%"%haslyrics% -T "ALBUMARTIST=%albumartist%" -T "DISCNUMBER=%cdnumber%" -T "TOTALDISCS=%totalcds%" -T "TOTALTRACKS=%numtracks%" -T "COMMENT=%comment%" %source% -o %dest%
TOC of the extracted CD
     Track |   Start  |  Length  | Start sector | End sector
    ---------------------------------------------------------
        1  |  0:00.00 |  3:41.73 |         0    |    16647
        2  |  3:41.73 |  3:31.21 |     16648    |    32493
        3  |  7:13.19 |  3:29.74 |     32494    |    48242
        4  | 10:43.18 |  3:27.15 |     48243    |    63782
        5  | 14:10.33 |  3:38.24 |     63783    |    80156
        6  | 17:48.57 |  3:10.71 |     80157    |    94477
        7  | 20:59.53 |  3:15.71 |     94478    |   109173
        8  | 24:15.49 |  4:44.39 |    109174    |   130512
        9  | 29:00.13 |  3:33.29 |    130513    |   146516
       10  | 32:33.42 |  3:15.73 |    146517    |   161214
       11  | 35:49.40 |  3:42.72 |    161215    |   177936
Track  1
     Filename C:\rips\Magas - Friends Forever (2003) [FLAC] {EZCD-25}\01 - Blind Contact.wav
     Pre-gap length  0:00:02.00
     Peak level 98.8 %
     Extraction speed 4.3 X
     Track quality 100.0 %
     Test CRC AA743583
     Copy CRC AA743583
     Accurately ripped (confidence 3)  [9EBB2A74]  (AR v2)
     Copy OK
Track  2
     Filename C:\rips\Magas - Friends Forever (2003) [FLAC] {EZCD-25}\02 - Dead Quasars.wav
     Peak level 98.8 %
     Extraction speed 4.7 X
     Track quality 100.0 %
     Test CRC 22704168
     Copy CRC 22704168
     Accurately ripped (confidence 3)  [EA820A3D]  (AR v2)
     Copy OK
Track  3
     Filename C:\rips\Magas - Friends Forever (2003) [FLAC] {EZCD-25}\03 - Toys (Redux).wav
     Peak level 98.8 %
     Extraction speed 5.1 X
     Track quality 100.0 %
     Test CRC D7B1B48F
     Copy CRC D7B1B48F
     Accurately ripped (confidence 3)  [D4FC605A]  (AR v2)
     Copy OK
Track  4
     Filename C:\rips\Magas - Friends Forever (2003) [FLAC] {EZCD-25}\04 - Pocket Racers.wav
     Peak level 98.8 %
     Extraction speed 5.4 X
     Track quality 100.0 %
     Test CRC EA605859
     Copy CRC EA605859
     Accurately ripped (confidence 3)  [9055C8C5]  (AR v2)
     Copy OK
Track  5
     Filename C:\rips\Magas - Friends Forever (2003) [FLAC] {EZCD-25}\05 - Hard to Detect.wav
     Peak level 98.8 %
     Extraction speed 5.8 X
     Track quality 100.0 %
     Test CRC D14447C5
     Copy CRC D14447C5
     Accurately ripped (confidence 3)  [80565E40]  (AR v2)
     Copy OK
Track  6
     Filename C:\rips\Magas - Friends Forever (2003) [FLAC] {EZCD-25}\06 - This Is How We Do It.wav
     Peak level 98.8 %
     Extraction speed 5.9 X
     Track quality 100.0 %
     Test CRC 601AF38D
     Copy CRC 601AF38D
     Accurately ripped (confidence 3)  [FCDB5560]  (AR v2)
     Copy OK
Track  7
     Filename C:\rips\Magas - Friends Forever (2003) [FLAC] {EZCD-25}\07 - Lovecompressor (Edit).wav
     Peak level 98.8 %
     Extraction speed 6.2 X
     Track quality 100.0 %
     Test CRC 21E5C0E6
     Copy CRC 21E5C0E6
     Accurately ripped (confidence 3)  [EE1112FC]  (AR v2)
     Copy OK
Track  8
     Filename C:\rips\Magas - Friends Forever (2003) [FLAC] {EZCD-25}\08 - Klub 99.wav
     Peak level 98.8 %
     Extraction speed 5.8 X
     Track quality 99.9 %
     Test CRC B2A298D6
     Copy CRC B2A298D6
     Accurately ripped (confidence 3)  [3B6D5FEA]  (AR v2)
     Copy OK
Track  9
     Filename C:\rips\Magas - Friends Forever (2003) [FLAC] {EZCD-25}\09 - Cheaper & Slower.wav
     Peak level 98.8 %
     Extraction speed 6.9 X
     Track quality 100.0 %
     Test CRC FBCA317D
     Copy CRC FBCA317D
     Accurately ripped (confidence 3)  [3A0F26C5]  (AR v2)
     Copy OK
Track 10
     Filename C:\rips\Magas - Friends Forever (2003) [FLAC] {EZCD-25}\10 - Into the Void.wav
     Peak level 98.8 %
     Extraction speed 7.1 X
     Track quality 100.0 %
     Test CRC DD60C36F
     Copy CRC DD60C36F
     Accurately ripped (confidence 3)  [CFDBA597]  (AR v2)
     Copy OK
Track 11
     Filename C:\rips\Magas - Friends Forever (2003) [FLAC] {EZCD-25}\11 - Too Much Fear.wav
     Peak level 98.8 %
     Extraction speed 7.3 X
     Track quality 100.0 %
     Test CRC AE110683
     Copy CRC AE110683
     Accurately ripped (confidence 3)  [E859518D]  (AR v2)
     Copy OK
All tracks accurately ripped
No errors occurred
End of status report
---- CUETools DB Plugin V2.1.6
[CTDB TOCID: 6bS4Tf_iq9Tvj4CbyWWB0DqlU3c-] found
Submit result: 6bS4Tf_iq9Tvj4CbyWWB0DqlU3c- has been confirmed
Track | CTDB Status
  1   | (5/5) Accurately ripped
  2   | (5/5) Accurately ripped
  3   | (5/5) Accurately ripped
  4   | (5/5) Accurately ripped
  5   | (5/5) Accurately ripped
  6   | (5/5) Accurately ripped
  7   | (5/5) Accurately ripped
  8   | (5/5) Accurately ripped
  9   | (5/5) Accurately ripped
 10   | (5/5) Accurately ripped
 11   | (5/5) Accurately ripped
==== Log checksum 1C17CA92F54AC3ABB4475F6905DC2A11DABE483527F0CD40277B9E133F13D7D5 ====
Код:
REM GENRE Electronic
REM DATE 2003
REM DISCID 8109440B
REM COMMENT "ExactAudioCopy v1.3"
PERFORMER "Magas"
TITLE "Friends Forever"
REM COMPOSER ""
FILE "01 - Blind Contact.wav" WAVE
  TRACK 01 AUDIO
    TITLE "Blind Contact"
    PERFORMER "Magas"
    REM COMPOSER ""
    FLAGS DCP
    INDEX 01 00:00:00
FILE "02 - Dead Quasars.wav" WAVE
  TRACK 02 AUDIO
    TITLE "Dead Quasars"
    PERFORMER "Magas"
    REM COMPOSER ""
    FLAGS DCP
    INDEX 01 00:00:00
FILE "03 - Toys (Redux).wav" WAVE
  TRACK 03 AUDIO
    TITLE "Toys (Redux)"
    PERFORMER "Magas"
    REM COMPOSER ""
    FLAGS DCP
    INDEX 01 00:00:00
FILE "04 - Pocket Racers.wav" WAVE
  TRACK 04 AUDIO
    TITLE "Pocket Racers"
    PERFORMER "Magas"
    REM COMPOSER ""
    FLAGS DCP
    INDEX 01 00:00:00
FILE "05 - Hard to Detect.wav" WAVE
  TRACK 05 AUDIO
    TITLE "Hard to Detect"
    PERFORMER "Magas"
    REM COMPOSER ""
    FLAGS DCP
    INDEX 01 00:00:00
FILE "06 - This Is How We Do It.wav" WAVE
  TRACK 06 AUDIO
    TITLE "This Is How We Do It"
    PERFORMER "Magas"
    REM COMPOSER ""
    FLAGS DCP
    INDEX 01 00:00:00
FILE "07 - Lovecompressor (Edit).wav" WAVE
  TRACK 07 AUDIO
    TITLE "Lovecompressor (Edit)"
    PERFORMER "Magas"
    REM COMPOSER ""
    FLAGS DCP
    INDEX 01 00:00:00
FILE "08 - Klub 99.wav" WAVE
  TRACK 08 AUDIO
    TITLE "Klub 99"
    PERFORMER "Magas"
    REM COMPOSER ""
    FLAGS DCP
    INDEX 01 00:00:00
FILE "09 - Cheaper & Slower.wav" WAVE
  TRACK 09 AUDIO
    TITLE "Cheaper & Slower"
    PERFORMER "Magas"
    REM COMPOSER ""
    FLAGS DCP
    INDEX 01 00:00:00
FILE "10 - Into the Void.wav" WAVE
  TRACK 10 AUDIO
    TITLE "Into the Void"
    PERFORMER "Magas"
    REM COMPOSER ""
    FLAGS DCP
    INDEX 01 00:00:00
FILE "11 - Too Much Fear.wav" WAVE
  TRACK 11 AUDIO
    TITLE "Too Much Fear"
    PERFORMER "Magas"
    REM COMPOSER ""
    FLAGS DCP
    INDEX 01 00:00:00
Правила, инструкции, FAQ!!!
Торрент  Добавлен [11 июл 2019, 11:58] Скачать торрент Магнет ссылка
Скачать торрент
[ Размер 18.46 КБ / Просмотров 7 ]

Статус
Проверен 
 
Размер  216.05 МБ
Приватный: Нет (DHT включён)
.torrent скачан  1
Как залить торрент? | Как скачать Torrent? | Ошибка в торренте? Качайте магнет  


     Отправить личное сообщение
   
Страница 1 из 1
Показать сообщения за:  Поле сортировки  
Начать новую тему Ответить на тему


Сейчас этот форум просматривают: нет зарегистрированных пользователей и гости: 0


Вы не можете начинать темы
Вы не можете отвечать на сообщения
Вы не можете редактировать свои сообщения
Вы не можете удалять свои сообщения
Вы не можете добавлять вложения

Перейти:  
Ресурс не предоставляет электронные версии произведений, а занимается лишь коллекционированием и каталогизацией ссылок, присылаемых и публикуемых на форуме нашими читателями. Если вы являетесь правообладателем какого-либо представленного материала и не желаете чтобы ссылка на него находилась в нашем каталоге, свяжитесь с нами и мы незамедлительно удалим её. Файлы для обмена на трекере предоставлены пользователями сайта, и администрация не несёт ответственности за их содержание. Просьба не заливать файлы, защищенные авторскими правами, а также файлы нелегального содержания!
cron