Начать новую тему Ответить на тему
Статистика раздачи
Размер: 799.82 МБ | Добавлен: 12 май 2019, 22:50 | Скачали: 1
Сидеров: 0  [0 байт/сек]    Личеров: 0  [0 байт/сек]
Пред. тема | След. тема 

Автор
Сообщение

СообщениеДобавлено: 12 май 2019, 22:50 

Ответить с цитатой 

Single Gun Theory - 3 CD ALBUMS 1987-1994
Жанр: Synthpop, Electronic Dance, Downtempo, Dream pop, Ambient pop, Techno, Industrial.
Носитель: CD
Год издания: 1987-1994
Издатель (лейбл): Nettwerk
Страна исполнителя (группы): German
Аудиокодек: FLAC (*.flac)
Тип рипа: image+.cue
Продолжительность: 02:13:50
Источник: собственная покупка
Наличие сканов в содержимом раздачи: да
http://fastpic.ru/Single Gun Theory ‎– Exorcise This Wasteland 1987
Label:Nettwerk ‎– NTCD-39, Nettwerk ‎– NTCD 39
Format:CD, Album
Country:Canada
Released:1987
Style:Techno, Industrial, Synthpop, Downtempo, Dream pop, Ambient pop.
Tracklist:
01. I Close My Eyes 4:11
02. Open The Skies 3:23
03. The Silver Chord 2:56
04. Exorcise This Wasteland 4:09
05. This Septic Vein 3:56
06. Halo, Halo 3:53
07. Open Grave 3:00
08. 4 X 10 Cell (For Craig) 2:02
09. Singing Machines 2:46
10. Raise My Soul 3:46
11. The Red Sunshine 4:35
12. Can't Say That 2:07
13. Exorcise This Wasteland (Extended Remix) 5:41
14. Open The Skies (Extended Remix) 5:27
Код:
Exact Audio Copy V1.3 from 2. September 2016
Отчёт EAC об извлечении, выполненном 24. апреля 2019, 20:45
Single Gun Theory / Exorcise This Wasteland
Дисковод: SONY    CD-RW  CRX230ED   Adapter: 1  ID: 1
Режим чтения                 : Достоверность
Использование точного потока : Да
Отключение кэша аудио        : Да
Использование указателей C2  : Нет
Коррекция смещения при чтении                     : 6
Способность читать области Lead-in и Lead-out     : Нет
Заполнение пропущенных сэмплов тишиной            : Да
Удаление блоков с тишиной в начале и конце        : Нет
При вычислениях CRC использовались нулевые сэмплы : Да
Интерфейс                                         : Встроенный Win32-интерфейс для Win NT/2000
Выходной формат : Внутренние WAV-операции
Формат сэмплов  : 44.100 Гц; 16 бит; стерео
TOC извлечённого CD
     Трек |   Старт  | Длительность | Начальный сектор | Конечный сектор
    ---------------------------------------------------------------------
       1  |  0:00.00 |    4:11.37   |           0      |      18861
       2  |  4:11.37 |    3:23.60   |       18862      |      34146
       3  |  7:35.22 |    2:56.70   |       34147      |      47416
       4  | 10:32.17 |    4:09.03   |       47417      |      66094
       5  | 14:41.20 |    3:56.70   |       66095      |      83864
       6  | 18:38.15 |    3:53.42   |       83865      |     101381
       7  | 22:31.57 |    3:00.18   |      101382      |     114899
       8  | 25:32.00 |    2:02.25   |      114900      |     124074
       9  | 27:34.25 |    2:46.65   |      124075      |     136589
      10  | 30:21.15 |    3:46.22   |      136590      |     153561
      11  | 34:07.37 |    4:35.68   |      153562      |     174254
      12  | 38:43.30 |    2:07.00   |      174255      |     183779
      13  | 40:50.30 |    5:41.40   |      183780      |     209394
      14  | 46:31.70 |    5:27.45   |      209395      |     233964
Характеристики диапазона извлечения и сообщения об ошибках
Выбранный диапазон
     Имя файла C:\Users\Serg22\Documents\Single Gun Theory - Exorcise This Wasteland 1987\Single Gun Theory - Exorcise This Wasteland.wav
     Пиковый уровень 100.0 %
     Скорость извлечения 4.6 X
     Качество диапазона 100.0 %
     CRC теста ECC6C6DC
     CRC копии ECC6C6DC
     Копирование... OK
Ошибок не произошло
AccurateRip: сводка
Трек  1  : извлечено точно (доверие 2)  [4B7E5CF7]  (AR v2)
Трек  2  : извлечено точно (доверие 2)  [2D6D82E9]  (AR v2)
Трек  3  : извлечено точно (доверие 2)  [DEFC3C7F]  (AR v2)
Трек  4  : извлечено точно (доверие 2)  [5B1BB0B5]  (AR v2)
Трек  5  : извлечено точно (доверие 2)  [2D966D64]  (AR v2)
Трек  6  : извлечено точно (доверие 2)  [4640EEBA]  (AR v2)
Трек  7  : извлечено точно (доверие 2)  [E10C1380]  (AR v2)
Трек  8  : извлечено точно (доверие 2)  [8DA778C5]  (AR v2)
Трек  9  : извлечено точно (доверие 2)  [98DA6B8C]  (AR v2)
Трек 10  : извлечено точно (доверие 2)  [0EE395A6]  (AR v2)
Трек 11  : извлечено точно (доверие 2)  [6EB75C2D]  (AR v2)
Трек 12  : извлечено точно (доверие 2)  [2FA120D4]  (AR v2)
Трек 13  : извлечено точно (доверие 2)  [9A93E1E8]  (AR v2)
Трек 14  : извлечено точно (доверие 2)  [45CAC6D7]  (AR v2)
Все треки извлечены точно
Конец отчёта
==== Контрольная сумма отчёта 2D828972E012EF49E33FEED304C86EC04B1E72629B7D636923A098E2AE8F6369 ====
Код:
REM GENRE Techno-Industrial
REM DATE 1987
REM DISCID B60C2F0E
REM COMMENT "ExactAudioCopy v1.3"
PERFORMER "Single Gun Theory"
TITLE "Exorcise This Wasteland"
FILE "Single Gun Theory - Exorcise This Wasteland.flac" WAVE
  TRACK 01 AUDIO
    TITLE "I Close My Eyes"
    PERFORMER "Single Gun Theory"
    INDEX 01 00:00:00
  TRACK 02 AUDIO
    TITLE "Open The Skies"
    PERFORMER "Single Gun Theory"
    INDEX 01 04:11:37
  TRACK 03 AUDIO
    TITLE "The Silver Cord"
    PERFORMER "Single Gun Theory"
    INDEX 01 07:35:22
  TRACK 04 AUDIO
    TITLE "Exorcise This Wasteland"
    PERFORMER "Single Gun Theory"
    INDEX 01 10:32:17
  TRACK 05 AUDIO
    TITLE "This Septic Vein"
    PERFORMER "Single Gun Theory"
    INDEX 01 14:41:20
  TRACK 06 AUDIO
    TITLE "Halo, Halo"
    PERFORMER "Single Gun Theory"
    INDEX 01 18:38:15
  TRACK 07 AUDIO
    TITLE "Open Grave"
    PERFORMER "Single Gun Theory"
    INDEX 01 22:31:57
  TRACK 08 AUDIO
    TITLE "4x10 Cell (For Craig)"
    PERFORMER "Single Gun Theory"
    INDEX 00 25:31:37
    INDEX 01 25:32:00
  TRACK 09 AUDIO
    TITLE "Singing Machines"
    PERFORMER "Single Gun Theory"
    INDEX 01 27:34:25
  TRACK 10 AUDIO
    TITLE "Raise My Soul"
    PERFORMER "Single Gun Theory"
    INDEX 01 30:21:15
  TRACK 11 AUDIO
    TITLE "The Red Sunshine"
    PERFORMER "Single Gun Theory"
    INDEX 00 34:06:32
    INDEX 01 34:07:37
  TRACK 12 AUDIO
    TITLE "Can't Say That"
    PERFORMER "Single Gun Theory"
    INDEX 01 38:43:30
  TRACK 13 AUDIO
    TITLE "Open The Skies [Remix]"
    PERFORMER "Single Gun Theory"
    INDEX 01 40:50:30
  TRACK 14 AUDIO
    TITLE "Exorcise This Wasteland [Remix]"
    PERFORMER "Single Gun Theory"
    INDEX 01 46:31:70
#777Single Gun Theory ‎– Millions, Like Stars In My Hands, Daggers In My Heart, Wage War 1991

Label:Nettwerk Europe ‎– NET 020 CD
Format:CD, Album
Country:Europe
Released:1991
Style:Synthpop, Downtempo, Dream pop, Ambient pop.
Tracklist:
01. Closest To My Heart 0:30
02. From A Million Miles 4:34
03. Take Me Back 2:45
04. Words Written Backwards 4:22
05. Man Of Straw 4:04
06. Angels Over Teheran 4:09
07. Wild Blue Seas 1:45
08. I Am What I See 5:01
09. Great Palaces Of Immortal Splendour 4:58
10. Satellite 0:50
11. Surrender 4:45
12. Words Written Backwards (Radio Baghdad Edit) 4:33
Код:
Exact Audio Copy V1.3 from 2. September 2016
Отчёт EAC об извлечении, выполненном 11. февраля 2019, 10:45
Single Gun Theory / Like Stars in My Hands
Дисковод: SONY    CD-RW  CRX230ED   Adapter: 1  ID: 1
Режим чтения                 : Достоверность
Использование точного потока : Да
Отключение кэша аудио        : Да
Использование указателей C2  : Нет
Коррекция смещения при чтении                     : 6
Способность читать области Lead-in и Lead-out     : Нет
Заполнение пропущенных сэмплов тишиной            : Да
Удаление блоков с тишиной в начале и конце        : Нет
При вычислениях CRC использовались нулевые сэмплы : Да
Интерфейс                                         : Встроенный Win32-интерфейс для Win NT/2000
Выходной формат : Внутренние WAV-операции
Формат сэмплов  : 44.100 Гц; 16 бит; стерео
TOC извлечённого CD
     Трек |   Старт  | Длительность | Начальный сектор | Конечный сектор
    ---------------------------------------------------------------------
       1  |  0:00.00 |    0:30.07   |           0      |       2256
       2  |  0:30.07 |    4:34.33   |        2257      |      22839
       3  |  5:04.40 |    2:45.40   |       22840      |      35254
       4  |  7:50.05 |    4:22.50   |       35255      |      54954
       5  | 12:12.55 |    4:04.30   |       54955      |      73284
       6  | 16:17.10 |    4:09.37   |       73285      |      91996
       7  | 20:26.47 |    1:45.10   |       91997      |      99881
       8  | 22:11.57 |    5:01.68   |       99882      |     122524
       9  | 27:13.50 |    4:56.60   |      122525      |     144784
      10  | 32:10.35 |    0:52.27   |      144785      |     148711
      11  | 33:02.62 |    4:46.13   |      148712      |     170174
      12  | 37:49.00 |    4:34.37   |      170175      |     190761
Характеристики диапазона извлечения и сообщения об ошибках
Выбранный диапазон
     Имя файла C:\Users\Serg22\Documents\Single Gun Theory - Like Stars in My Hands 1991\Single Gun Theory - Like Stars in My Hands.wav
     Пиковый уровень 93.2 %
     Скорость извлечения 5.4 X
     Качество диапазона 99.9 %
     CRC теста EA7675CB
     CRC копии EA7675CB
     Копирование... OK
Ошибок не произошло
AccurateRip: сводка
Трек  1  : извлечено точно (доверие 5)  [1AF40227]  (AR v2)
Трек  2  : извлечено точно (доверие 5)  [2EF40C5B]  (AR v2)
Трек  3  : извлечено точно (доверие 5)  [7963C55E]  (AR v2)
Трек  4  : извлечено точно (доверие 5)  [226F38ED]  (AR v2)
Трек  5  : извлечено точно (доверие 5)  [CEB375F1]  (AR v2)
Трек  6  : извлечено точно (доверие 5)  [26CE25E5]  (AR v2)
Трек  7  : извлечено точно (доверие 5)  [E8087E3B]  (AR v2)
Трек  8  : извлечено точно (доверие 5)  [B2F06806]  (AR v2)
Трек  9  : извлечено точно (доверие 5)  [F4B20F70]  (AR v2)
Трек 10  : извлечено точно (доверие 5)  [5C04E751]  (AR v2)
Трек 11  : извлечено точно (доверие 5)  [246BCC2B]  (AR v2)
Трек 12  : извлечено точно (доверие 5)  [7C3A2B43]  (AR v2)
Все треки извлечены точно
Конец отчёта
==== Контрольная сумма отчёта 26063C0FD407B9EF5283FA49CFFFBAE1A0F963134A323602039E2F05335AAE66 ====
Код:
REM GENRE "New Wave"
REM DATE 1991
REM DISCID 9B09EF0C
REM COMMENT "ExactAudioCopy v1.3"
PERFORMER "Single Gun Theory"
TITLE "Like Stars in My Hands"
FILE "Single Gun Theory - Like Stars in My Hands.flac" WAVE
  TRACK 01 AUDIO
    TITLE "Closest To My Heart"
    PERFORMER "Single Gun Theory"
    INDEX 01 00:00:00
  TRACK 02 AUDIO
    TITLE "From a Million Miles"
    PERFORMER "Single Gun Theory"
    INDEX 01 00:30:07
  TRACK 03 AUDIO
    TITLE "Take Me Back"
    PERFORMER "Single Gun Theory"
    INDEX 00 05:04:02
    INDEX 01 05:04:40
  TRACK 04 AUDIO
    TITLE "Words Written Backwards"
    PERFORMER "Single Gun Theory"
    INDEX 01 07:50:05
  TRACK 05 AUDIO
    TITLE "Man of Straw"
    PERFORMER "Single Gun Theory"
    INDEX 01 12:12:55
  TRACK 06 AUDIO
    TITLE "Angels Over Teheran"
    PERFORMER "Single Gun Theory"
    INDEX 00 16:15:62
    INDEX 01 16:17:10
  TRACK 07 AUDIO
    TITLE "Wild Blue Seas"
    PERFORMER "Single Gun Theory"
    INDEX 00 20:25:25
    INDEX 01 20:26:47
  TRACK 08 AUDIO
    TITLE "I Am What I See"
    PERFORMER "Single Gun Theory"
    INDEX 00 22:08:37
    INDEX 01 22:11:57
  TRACK 09 AUDIO
    TITLE "Great Palaces of Immortal Splendour"
    PERFORMER "Single Gun Theory"
    INDEX 00 27:13:25
    INDEX 01 27:13:50
  TRACK 10 AUDIO
    TITLE "Satellite"
    PERFORMER "Single Gun Theory"
    INDEX 01 32:10:35
  TRACK 11 AUDIO
    TITLE "Surrender"
    PERFORMER "Single Gun Theory"
    INDEX 00 33:02:25
    INDEX 01 33:02:62
  TRACK 12 AUDIO
    TITLE "Words Written Backwards (Radio Baghdad Edit)"
    PERFORMER "Single Gun Theory"
    INDEX 00 37:47:52
    INDEX 01 37:49:00
#777Single Gun Theory ‎– Flow, River Of My Soul 1994

Label:Nettwerk ‎– 72438-30304-22, I.R.S. Records ‎– 72438-30304-22
Format:CD, Album
Country:US
Released:1994
Style:Synthpop, Downtempo, Dream pop, Ambient pop.
Tracklist:
01. Transmission 1:02
02. Fall 4:26
03. The Sea Of Core Experience 4:36
04. I've Been Dying 3:39
05. Decimated 2:02
06. My Estranged Wife 4:24
07. Phenomena 1:36
08. Metaphysical 3:41
09. The Point Beyond Which Something Will Happen 3:48
10. Thetan 2:54
11. Motherland 5:33
12. Still Closest To My Heart... 1:40
Код:
Exact Audio Copy V1.3 from 2. September 2016
Отчёт EAC об извлечении, выполненном 30. января 2019, 14:42
Single Gun Theory / Flow, River of My Soul
Дисковод: SONY    CD-RW  CRX230ED   Adapter: 1  ID: 1
Режим чтения                 : Достоверность
Использование точного потока : Да
Отключение кэша аудио        : Да
Использование указателей C2  : Нет
Коррекция смещения при чтении                     : 6
Способность читать области Lead-in и Lead-out     : Нет
Заполнение пропущенных сэмплов тишиной            : Да
Удаление блоков с тишиной в начале и конце        : Нет
При вычислениях CRC использовались нулевые сэмплы : Да
Интерфейс                                         : Встроенный Win32-интерфейс для Win NT/2000
Выходной формат : Внутренние WAV-операции
Формат сэмплов  : 44.100 Гц; 16 бит; стерео
TOC извлечённого CD
     Трек |   Старт  | Длительность | Начальный сектор | Конечный сектор
    ---------------------------------------------------------------------
       1  |  0:00.32 |    1:02.68   |          32      |       4749
       2  |  1:03.25 |    4:26.55   |        4750      |      24754
       3  |  5:30.05 |    4:36.22   |       24755      |      45476
       4  | 10:06.27 |    3:39.45   |       45477      |      61946
       5  | 13:45.72 |    2:02.20   |       61947      |      71116
       6  | 15:48.17 |    4:24.35   |       71117      |      90951
       7  | 20:12.52 |    1:36.00   |       90952      |      98151
       8  | 21:48.52 |    3:41.28   |       98152      |     114754
       9  | 25:30.05 |    3:48.67   |      114755      |     131921
      10  | 29:18.72 |    2:54.68   |      131922      |     145039
      11  | 32:13.65 |    5:33.45   |      145040      |     170059
      12  | 37:47.35 |    1:40.70   |      170060      |     177629
Характеристики диапазона извлечения и сообщения об ошибках
Выбранный диапазон
     Имя файла C:\Users\Serg22\Documents\Single Gun Theory - Flow, River of My Soul  1994\Single Gun Theory - Flow, River of My Soul.wav
     Пиковый уровень 96.5 %
     Скорость извлечения 7.0 X
     Качество диапазона 100.0 %
     CRC теста D3227A3A
     CRC копии D3227A3A
     Копирование... OK
Ошибок не произошло
AccurateRip: сводка
Трек  1  : извлечено точно (доверие 14)  [85EC007D]  (AR v2)
Трек  2  : извлечено точно (доверие 15)  [CCE58695]  (AR v2)
Трек  3  : извлечено точно (доверие 15)  [C91756BB]  (AR v2)
Трек  4  : извлечено точно (доверие 15)  [13A80F26]  (AR v2)
Трек  5  : извлечено точно (доверие 15)  [E34DA15D]  (AR v2)
Трек  6  : извлечено точно (доверие 15)  [B0512F4B]  (AR v2)
Трек  7  : извлечено точно (доверие 15)  [ED8CEF34]  (AR v2)
Трек  8  : извлечено точно (доверие 15)  [D6F670E6]  (AR v2)
Трек  9  : извлечено точно (доверие 15)  [763A0C14]  (AR v2)
Трек 10  : извлечено точно (доверие 15)  [C53FBBD2]  (AR v2)
Трек 11  : извлечено точно (доверие 16)  [1B46AB36]  (AR v2)
Трек 12  : извлечено точно (доверие 14)  [621C48B0]  (AR v2)
Все треки извлечены точно
Конец отчёта
==== Контрольная сумма отчёта 6FFBCEE53D1E9C339047B377250EDC2EEBEC0441E55FA85A8ECB566FF3052839 ====
Код:
REM GENRE "Alt. Rock"
REM DATE 1994
REM DISCID 8D09400C
REM COMMENT "ExactAudioCopy v1.3"
PERFORMER "Single Gun Theory"
TITLE "Flow, River of My Soul"
FILE "Single Gun Theory - Flow, River of My Soul.flac" WAVE
  TRACK 01 AUDIO
    TITLE "Transmission"
    PERFORMER "Single Gun Theory"
    INDEX 00 00:00:00
    INDEX 01 00:00:32
  TRACK 02 AUDIO
    TITLE "Fall"
    PERFORMER "Single Gun Theory"
    INDEX 00 01:02:17
    INDEX 01 01:03:25
  TRACK 03 AUDIO
    TITLE "The Sea of Core Experience"
    PERFORMER "Single Gun Theory"
    INDEX 00 05:29:02
    INDEX 01 05:30:05
  TRACK 04 AUDIO
    TITLE "I've Been Dying"
    PERFORMER "Single Gun Theory"
    INDEX 00 10:06:10
    INDEX 01 10:06:27
  TRACK 05 AUDIO
    TITLE "Decimated"
    PERFORMER "Single Gun Theory"
    INDEX 00 13:44:30
    INDEX 01 13:45:72
  TRACK 06 AUDIO
    TITLE "My Estranged Wife"
    PERFORMER "Single Gun Theory"
    INDEX 01 15:48:17
  TRACK 07 AUDIO
    TITLE "Phenomena"
    PERFORMER "Single Gun Theory"
    INDEX 01 20:12:52
  TRACK 08 AUDIO
    TITLE "Metaphysical"
    PERFORMER "Single Gun Theory"
    INDEX 00 21:47:47
    INDEX 01 21:48:52
  TRACK 09 AUDIO
    TITLE "The Point Beyond Which Something Will Happen"
    PERFORMER "Single Gun Theory"
    INDEX 00 25:29:45
    INDEX 01 25:30:05
  TRACK 10 AUDIO
    TITLE "Thetan"
    PERFORMER "Single Gun Theory"
    INDEX 00 29:17:32
    INDEX 01 29:18:72
  TRACK 11 AUDIO
    TITLE "Motherland"
    PERFORMER "Single Gun Theory"
    INDEX 00 32:12:67
    INDEX 01 32:13:65
  TRACK 12 AUDIO
    TITLE "Still Closest to My Heart..."
    PERFORMER "Single Gun Theory"
    INDEX 00 37:46:50
    INDEX 01 37:47:35
Jacqui Hunt, Kath Power, Pete Rivett-Carnac
СКАЧАЛИ НЕ ЗАБЫВАЕМ ГОВОРИТЬ СПАСИБО!
Правила, инструкции, FAQ!!!
Торрент  Добавлен [12 май 2019, 22:50] Скачать торрент Магнет ссылка
Скачать торрент
[ Размер 19.32 КБ / Просмотров 5 ]

Статус
Проверен 
 
Размер  799.82 МБ
Приватный: Нет (DHT включён)
.torrent скачан  1
Как залить торрент? | Как скачать Torrent? | Ошибка в торренте? Качайте магнет  


     Отправить личное сообщение
   
Страница 1 из 1
Показать сообщения за:  Поле сортировки  
Начать новую тему Ответить на тему


Сейчас этот форум просматривают: нет зарегистрированных пользователей и гости: 0


Вы не можете начинать темы
Вы не можете отвечать на сообщения
Вы не можете редактировать свои сообщения
Вы не можете удалять свои сообщения
Вы не можете добавлять вложения

Перейти:  
Ресурс не предоставляет электронные версии произведений, а занимается лишь коллекционированием и каталогизацией ссылок, присылаемых и публикуемых на форуме нашими читателями. Если вы являетесь правообладателем какого-либо представленного материала и не желаете чтобы ссылка на него находилась в нашем каталоге, свяжитесь с нами и мы незамедлительно удалим её. Файлы для обмена на трекере предоставлены пользователями сайта, и администрация не несёт ответственности за их содержание. Просьба не заливать файлы, защищенные авторскими правами, а также файлы нелегального содержания!