Начать новую тему Ответить на тему
Статистика раздачи
Размер: 1.12 ГБ | Добавлен: 11 июл 2019, 11:58 | Скачали: 0
Сидеров: 0  [0 байт/сек]    Личеров: 0  [0 байт/сек]
Пред. тема | След. тема 

Автор
Сообщение

СообщениеДобавлено: 11 июл 2019, 11:58 

Ответить с цитатой 

Depeche Mode / 101 (SAD High-End Remaster)
Жанр: Synthpop
Носитель: CD
Страна-производитель диска (релиза): Russia
Год издания: 2019
Издатель (лейбл): SilverAudioDesign
Номер по каталогу: VII
Страна исполнителя (группы): UK
Аудиокодек: FLAC (*.flac)
Тип рипа: tracks+.cue
Продолжительность: 1:22:07
Формат раздачи: 24/44
Источник: интернет (неизвестен)
Наличие сканов в содержимом раздачи: нет
Треклист:
Disc A
01. Pimpf (Live)
02. Behind The Wheel (Live)
03. Strangelove (Live)
04. Sacred (Live)
05. Something To Do (Live)
06. Blasphemous Rumours (Live)
07. Stripped (Live)
08. Somebody (Live)
09. Things You Said (Live)
Disc B
01. Black Celebration
02. Shake the Disease
03. Nothing
04. Pleasure Little Treasure
05. People are People
06. A Question of Time
07. Never Let Me Down Again
08. A Question of Lust
09. Master and Servant
10. Just Can't Get Enough
11. Everything Counts
Код:
REM GENRE Synthpop
REM DATE 1988
REM DISCID 6C09C009
REM COMMENT "ExactAudioCopy v0.99pb4"
PERFORMER "Depeche Mode"
TITLE "101 (Disc a)"
FILE "01. Depeche Mode - Pimpf.wav" WAVE
  TRACK 01 AUDIO
    TITLE "Pimpf"
    PERFORMER "Depeche Mode"
    PREGAP 00:00:32
    INDEX 01 00:00:00
FILE "02. Depeche Mode - Behind The Wheel.wav" WAVE
  TRACK 02 AUDIO
    TITLE "Behind The Wheel"
    PERFORMER "Depeche Mode"
    INDEX 01 00:00:00
FILE "03. Depeche Mode - Strangelove.wav" WAVE
  TRACK 03 AUDIO
    TITLE "Strangelove"
    PERFORMER "Depeche Mode"
    INDEX 01 00:00:00
FILE "04. Depeche Mode - Sacred.wav" WAVE
  TRACK 04 AUDIO
    TITLE "Sacred"
    PERFORMER "Depeche Mode"
    INDEX 01 00:00:00
FILE "05. Depeche Mode - Something To Do.wav" WAVE
  TRACK 05 AUDIO
    TITLE "Something To Do"
    PERFORMER "Depeche Mode"
    INDEX 01 00:00:00
FILE "06. Depeche Mode - Blasphemous Rumours.wav" WAVE
  TRACK 06 AUDIO
    TITLE "Blasphemous Rumours"
    PERFORMER "Depeche Mode"
    INDEX 01 00:00:00
FILE "07. Depeche Mode - Stripped.wav" WAVE
  TRACK 07 AUDIO
    TITLE "Stripped"
    PERFORMER "Depeche Mode"
    INDEX 01 00:00:00
FILE "08. Depeche Mode - Somebody.wav" WAVE
  TRACK 08 AUDIO
    TITLE "Somebody"
    PERFORMER "Depeche Mode"
    INDEX 01 00:00:00
FILE "09. Depeche Mode - Things You Said.wav" WAVE
  TRACK 09 AUDIO
    TITLE "Things You Said"
    PERFORMER "Depeche Mode"
    INDEX 01 00:00:00
Код:
foobar2000 1.4.5 / Замер динамического диапазона (DR) 1.1.1
Дата отчёта:  2019-06-27 08:02:53
--------------------------------------------------------------------------------
Анализ:   Depeche Mode / 101 (Disc A)
--------------------------------------------------------------------------------
DR         Пики         RMS           Продолжительность трека
--------------------------------------------------------------------------------
DR9       -0.02 дБ   -10.90 дБ      0:59 01-Pimpf
DR9       -0.01 дБ   -10.32 дБ      5:55 02-Behind The Wheel
DR10      -0.01 дБ   -10.85 дБ      4:50 03-Strangelove
DR9       -0.01 дБ   -10.71 дБ      5:09 04-Sacred
DR9       -0.01 дБ   -10.21 дБ      3:54 05-Something To Do
DR9       -0.01 дБ   -10.46 дБ      5:09 06-Blasphemous Rumours
DR9       -0.01 дБ   -10.50 дБ      6:45 07-Stripped
DR10      -0.01 дБ   -11.71 дБ      4:34 08-Somebody
DR10      -0.01 дБ   -10.83 дБ      4:22 09-Things You Said
--------------------------------------------------------------------------------
Количество треков: 9
Реальные значения DR: DR9
Частота:   44100 Гц
Каналов:   2
Разрядность:   24
Битрейт:   1679 кбит/с
Кодек:   FLAC
================================================================================
Доп. информация: Улучшение качества звучания: эквализация, сатурация и рандомизация.
Правила, инструкции, FAQ!!!
Торрент  Добавлен [11 июл 2019, 11:58] Скачать торрент Магнет ссылка
Скачать торрент
[ Размер 13.51 КБ / Просмотров 5 ]

Статус
Проверен 
 
Размер  1.12 ГБ
Приватный: Нет (DHT включён)
.torrent скачан  0
Как залить торрент? | Как скачать Torrent? | Ошибка в торренте? Качайте магнет  


     Отправить личное сообщение
   
Страница 1 из 1
Показать сообщения за:  Поле сортировки  
Начать новую тему Ответить на тему


Сейчас этот форум просматривают: нет зарегистрированных пользователей и гости: 0


Вы не можете начинать темы
Вы не можете отвечать на сообщения
Вы не можете редактировать свои сообщения
Вы не можете удалять свои сообщения
Вы не можете добавлять вложения

Перейти:  
Ресурс не предоставляет электронные версии произведений, а занимается лишь коллекционированием и каталогизацией ссылок, присылаемых и публикуемых на форуме нашими читателями. Если вы являетесь правообладателем какого-либо представленного материала и не желаете чтобы ссылка на него находилась в нашем каталоге, свяжитесь с нами и мы незамедлительно удалим её. Файлы для обмена на трекере предоставлены пользователями сайта, и администрация не несёт ответственности за их содержание. Просьба не заливать файлы, защищенные авторскими правами, а также файлы нелегального содержания!
cron