Начать новую тему Ответить на тему
Статистика раздачи
Размер: 575.15 МБ | Добавлен: 08 июн 2019, 08:57 | Скачали: 1
Сидеров: 0  [0 байт/сек]    Личеров: 0  [0 байт/сек]
Пред. тема | След. тема 

Автор
Сообщение

СообщениеДобавлено: 08 июн 2019, 08:57 

Ответить с цитатой 

Symphonieorchester des Bayerischen Rundfunks, Mariss Jansons / Schumann - Symphony No. 1 & Schubert - Symphony No. 3
Формат записи/Источник записи: [TR24][OF]
Наличие водяных знаков: Нет
Год издания/переиздания диска: 2019
Жанр: Classical
Издатель (лейбл): BR Klassik
Продолжительность: 00:58:11
Наличие сканов в содержимом раздачи: Буклет PDF
Треклист:
Schumann: Symphony No. 1, B Major op. 38 32:37
01. I. Andante un poco maestoso - Allegro molto vivace (Live) 11:17
02. II. Larghetto (Live) 7:03
03. III. Scherzo. Molto vivace (Live) 5:38
04. IV. Allegro animato e grazioso (Live) 8:39
Schubert: Symphony No. 3 in D major, D200 25:18
05. I. Adagio maestoso – Allegro con brio (Live) 9:31
06. II. Allegretto (Live) 4:29
07. III. Menuetto. Vivace (Live) 4:04
08. IV. Presto. Vivace (Live) 7:14
Symphonie-Orchester des Bayerischen Rundfunks
Mariss Jansons
Контейнер: FLAC (*.flac)
Тип рипа: tracks
Разрядность: 24/48
Формат: PCM
Количество каналов: 2.0
Код:
foobar2000 1.4.3 / Dynamic Range Meter 1.1.1
log date: 2019-06-08 10:21:45
--------------------------------------------------------------------------------
Analyzed: Symphonieorchester Des Bayerischen Rundfunks / R. Schumann: Symphony No. 1, Op. 38 "Spring" - Schubert: Symphony No. 3, D. 200 (Live)
--------------------------------------------------------------------------------
DR         Peak         RMS     Duration Track
--------------------------------------------------------------------------------
DR14      -0.50 dB   -19.45 dB     11:18 01-Symphony No. 1 in B-Flat Major, Op. 38 "Spring": I. Andante un poco maestoso - Allegro molto vivace (Live)
DR13      -4.17 dB   -23.56 dB      7:04 02-Symphony No. 1 in B-Flat Major, Op. 38 "Spring": II. Larghetto (Live)
DR15      -0.51 dB   -20.24 dB      5:39 03-Symphony No. 1 in B-Flat Major, Op. 38 "Spring": III. Scherzo. Molto vivace (Live)
DR14      -0.51 dB   -19.18 dB      8:48 04-Symphony No. 1 in B-Flat Major, Op. 38 "Spring": IV. Allegro animato e grazioso (Live)
DR12      -0.80 dB   -18.74 dB      9:32 05-Symphony No. 3 in D Major, D. 200: I. Adagio maestoso – Allegro con brio (Live)
DR15      -6.93 dB   -27.88 dB      4:30 06-Symphony No. 3 in D Major, D. 200: II. Allegretto (Live)
DR14      -1.85 dB   -20.44 dB      4:04 07-Symphony No. 3 in D Major, D. 200: III. Menuetto. Vivace (Live)
DR12      -1.86 dB   -18.98 dB      7:15 08-Symphony No. 3 in D Major, D. 200: IV. Presto. Vivace (Live)
--------------------------------------------------------------------------------
Number of tracks:  8
Official DR value: DR14
Samplerate:        48000 Hz
Channels:          2
Bits per sample:   24
Bitrate:           1420 kbps
Codec:             FLAC
================================================================================
Источник (релизер): https://www.prestomusic.com/classical/products/8617742--schumann-symphony-no-1-sc...rt-symphony-no-3
Правила, инструкции, FAQ!!!
Торрент  Добавлен [08 июн 2019, 08:57] Скачать торрент Магнет ссылка
Скачать торрент
[ Размер 46.09 КБ / Просмотров 6 ]

Статус
Проверен 
 
Размер  575.15 МБ
Приватный: Нет (DHT включён)
.torrent скачан  1
Как залить торрент? | Как скачать Torrent? | Ошибка в торренте? Качайте магнет  


     Отправить личное сообщение
   
Страница 1 из 1
Показать сообщения за:  Поле сортировки  
Начать новую тему Ответить на тему


Сейчас этот форум просматривают: нет зарегистрированных пользователей и гости: 0


Вы не можете начинать темы
Вы не можете отвечать на сообщения
Вы не можете редактировать свои сообщения
Вы не можете удалять свои сообщения
Вы не можете добавлять вложения

Перейти:  
Ресурс не предоставляет электронные версии произведений, а занимается лишь коллекционированием и каталогизацией ссылок, присылаемых и публикуемых на форуме нашими читателями. Если вы являетесь правообладателем какого-либо представленного материала и не желаете чтобы ссылка на него находилась в нашем каталоге, свяжитесь с нами и мы незамедлительно удалим её. Файлы для обмена на трекере предоставлены пользователями сайта, и администрация не несёт ответственности за их содержание. Просьба не заливать файлы, защищенные авторскими правами, а также файлы нелегального содержания!