Начать новую тему Ответить на тему
Статистика раздачи
Размер: 1.21 ГБ | Добавлен: 10 июл 2019, 09:02 | Скачали: 0
Сидеров: 0  [0 байт/сек]    Личеров: 0  [0 байт/сек]
Пред. тема | След. тема 

Автор
Сообщение

СообщениеДобавлено: 10 июл 2019, 09:02 

Ответить с цитатой 

Ludrium (Cody Carpenter)



Collection

Жанр: Symphonic Prog/Fusion/Synthwave
Носитель: WEB
Год издания: 2012-2019
Страна исполнителя (группы): USA
Аудиокодек: FLAC (*.flac)
Тип рипа: tracks
Битрейт аудио: lossless
Продолжительность: 02:59:21
Источник (релизер): указан поальбомно
Наличие сканов в содержимом раздачи:
PDF (Alternate Universe Lyric Sheet)


Ludrium - это музыкальный проект, созданный мульти-инструменталистом Коди Карпентером (сыном американского
кинорежиссёра, сценариста, композитора и продюсера Джона Карпентера). Четыре альбома, представленные в этой
раздаче довольно сильно различаются в музыкальном плане. Дебютный альбом Zeal - симфо-проговый,
с заметным влиянием Кита Эмерсона. Три последующих: "Alternate Universe", "Reflections" и "Stargazer" -
лёгкий арт-поп-рок, с элементами нью-вейва 80-х.

01. There's Only Heaven [00:04:31]
02. Ageless in Servitude [00:04:37]
03. Your Indignation [00:04:13]
04. The Wolf Goddess [00:04:18]
05. Such is Seething [00:05:46]
06. Zeal [00:05:20]
07. This Evensong [00:05:40]
08. Prelude [00:03:22]
09. The Final Battle [00:09:04]
Released December 2, 2012
Источник: Bandcamp
Код:
-----------------------
DON'T MODIFY THIS FILE
-----------------------
PERFORMER: auCDtect Task Manager, ver. 1.6.0 RC1 build 1.6.0.1
Copyright (c) 2008-2010 y-soft. All rights reserved
[url=http://y-soft.org]http://y-soft.org[/url]
ANALYZER: auCDtect: CD records authenticity detector, version 0.8.2
Copyright (c) 2004 Oleg Berngardt. All rights reserved.
Copyright (c) 2004 Alexander Djourik. All rights reserved.
FILE: Ludrium - Zeal - 09 The Final Battle.flac
  Size: 66042551 Hash: 90E665898AA979E931A09016BB7020B3 Accuracy: -m0
  Conclusion: CDDA 99%
  Signature: AD3A4CE1BE392D04BC7283F003EF76C5C680CEFF
FILE: Ludrium - Zeal - 08 Prelude.flac
  Size: 18422017 Hash: 40E8D5744D76EAE1E1A4B13E83DA4D02 Accuracy: -m0
  Conclusion: CDDA 99%
  Signature: C41EC736E3A004D466A81E246A5BEB1EACCA8EEC
FILE: Ludrium - Zeal - 07 This Evensong.flac
  Size: 39864711 Hash: D9B676B75E4A3C7CFB428F408786197D Accuracy: -m0
  Conclusion: CDDA 100%
  Signature: 47AAB538AC34E3887D61761511C974C3F4489DFF
FILE: Ludrium - Zeal - 06 Zeal.flac
  Size: 35458784 Hash: D5A21E23B18295231CC514F6BD1909E7 Accuracy: -m0
  Conclusion: CDDA 100%
  Signature: BB1578D23F3269742B3365BC683219ED8907022C
FILE: Ludrium - Zeal - 05 Such is Seething.flac
  Size: 38031191 Hash: E3DD05CB9E32CD5839A809548D60CF76 Accuracy: -m0
  Conclusion: CDDA 100%
  Signature: 21EDE7948C99D95BF0AF882694EA5AAF4A7C2C48
FILE: Ludrium - Zeal - 04 The Wolf Goddess.flac
  Size: 24472740 Hash: A1E58D5273A8246D1631B72C49A7B1B4 Accuracy: -m0
  Conclusion: CDDA 100%
  Signature: FF32550CB39B2C9824D4A70BECDCF94BFC75FDCC
FILE: Ludrium - Zeal - 03 Your Indignation.flac
  Size: 26718248 Hash: 79F3A6B4D0E99BB14D3E8DE316465524 Accuracy: -m0
  Conclusion: CDDA 100%
  Signature: 034FEC3BA67721B20512B794A3D454CFB683EAB7
FILE: Ludrium - Zeal - 02 Ageless in Servitude.flac
  Size: 32560970 Hash: FD8EB7E52D7DC33B3209E6848C8344D6 Accuracy: -m0
  Conclusion: CDDA 99%
  Signature: CA6F25474F5F088F459EE3C749868C838EFDE848
FILE: Ludrium - Zeal - 01 There's Only Heaven.flac
  Size: 30680079 Hash: 7BC444C7B75515D95BA6B7FBCA40D824 Accuracy: -m0
  Conclusion: CDDA 100%
  Signature: 99D9F171EC5AFC7BD2BD101F0C4B4844358486E6
Код:
foobar2000 1.3.12 / Dynamic Range Meter 1.1.1
log date: 2018-02-01 12:00:47
--------------------------------------------------------------------------------
Analyzed: Ludrium / Zeal
--------------------------------------------------------------------------------
DR         Peak         RMS     Duration Track
--------------------------------------------------------------------------------
DR10       0.00 dB   -12.18 dB      4:32 01-There's Only Heaven
DR9       -0.07 dB   -10.61 dB      4:38 02-Ageless in Servitude
DR9       -0.23 dB   -12.93 dB      4:14 03-Your Indignation
DR8       -0.20 dB   -11.88 dB      4:18 04-The Wolf Goddess
DR11       0.00 dB   -13.67 dB      5:47 05-Such is Seething
DR11      -0.08 dB   -12.77 dB      5:20 06-Zeal
DR8       -0.04 dB    -9.75 dB      5:40 07-This Evensong
DR8       -1.30 dB   -13.53 dB      3:22 08-Prelude
DR9        0.00 dB   -11.66 dB      9:04 09-The Final Battle
--------------------------------------------------------------------------------
Number of tracks:  9
Official DR value: DR9
Samplerate:        44100 Hz
Channels:          2
Bits per sample:   16
Bitrate:           970 kbps
Codec:             FLAC
================================================================================
#777
01. Little Magic Girl [00:04:31]
02. Live With Love [00:04:29]
03. Sweet Bee [00:04:04]
04. A Note [00:02:51]
05. Wish Us Well [00:04:56]
06. Waiting For That Day [00:04:16]
07. Lament [00:03:00]
08. Colors [00:04:18]
09. Across The River [00:04:32]
10. Together [00:03:05]
11. Infinity Gaze [00:05:05]
Released January 24, 2017
Источник: Bandcamp
Код:
-----------------------
DON'T MODIFY THIS FILE
-----------------------
PERFORMER: auCDtect Task Manager, ver. 1.6.0 RC1 build 1.6.0.1
Copyright (c) 2008-2010 y-soft. All rights reserved
[url=http://y-soft.org]http://y-soft.org[/url]
ANALYZER: auCDtect: CD records authenticity detector, version 0.8.2
Copyright (c) 2004 Oleg Berngardt. All rights reserved.
Copyright (c) 2004 Alexander Djourik. All rights reserved.
FILE: Ludrium - Alternate Universe - 11 Infinity Gaze.flac
  Size: 35096078 Hash: CC97E00691F36ECF8A661774B725626E Accuracy: -m0
  Conclusion: CDDA 100%
  Signature: 3B86C7685E5CA6387BB602943C47FC3BA87F8BBC
FILE: Ludrium - Alternate Universe - 10 Together.flac
  Size: 18195339 Hash: 75751D045956808E831F8CC57043D731 Accuracy: -m0
  Conclusion: CDDA 100%
  Signature: EFCC7F87611719607BBC8B4FA9B8B8A2A4E3043B
FILE: Ludrium - Alternate Universe - 09 Across The River.flac
  Size: 33942235 Hash: F2A3CAACE9D60E6DB9DCF618E8A6C8F5 Accuracy: -m0
  Conclusion: CDDA 100%
  Signature: 8D92EF60FEAAE4F2D50C67E067331C934AF47E80
FILE: Ludrium - Alternate Universe - 08 Colors.flac
  Size: 29993350 Hash: FA8F44253A0132F1E2C7A3C01C8C26F7 Accuracy: -m0
  Conclusion: CDDA 100%
  Signature: 3589F56F374A5C881A29A819D0F1D40D62A123F9
FILE: Ludrium - Alternate Universe - 07 Lament.flac
  Size: 19520361 Hash: CF42E369A023038373A9D3C278314733 Accuracy: -m0
  Conclusion: CDDA 100%
  Signature: 8B9DB0487993FAE939614BDB4D37F19A56DB72B8
FILE: Ludrium - Alternate Universe - 06 Waiting For That Day.flac
  Size: 31570819 Hash: D3DFABA728FDAF95F5EF88D570E09418 Accuracy: -m0
  Conclusion: CDDA 99%
  Signature: 0EAD26D50F589128A7C6A92198684F8496F380FC
FILE: Ludrium - Alternate Universe - 05 Wish Us Well.flac
  Size: 36327528 Hash: C23B48A909C73F1B0A1B230F8F624B36 Accuracy: -m0
  Conclusion: CDDA 100%
  Signature: 60D91D4165A94164A9DC2405FDE6FB5C8B878CDF
FILE: Ludrium - Alternate Universe - 04 A Note.flac
  Size: 15871083 Hash: 607FF079E297ACDB80AF0AE145601079 Accuracy: -m0
  Conclusion: CDDA 100%
  Signature: 34771080A4300E537D5821D2E01948C9CF222938
FILE: Ludrium - Alternate Universe - 03 Sweet Bee.flac
  Size: 28700654 Hash: 48A811E896070A95437CE13496F63C6D Accuracy: -m0
  Conclusion: CDDA 100%
  Signature: 69C3414CA9CA9980FDB770EA67DB0D9B4D891D11
FILE: Ludrium - Alternate Universe - 02 Live With Love.flac
  Size: 31391766 Hash: BF35165B650D715756AAFCEEDE6B793D Accuracy: -m0
  Conclusion: CDDA 100%
  Signature: 532DDC29F82BD4A2B97D8A309C7548219B90E824
FILE: Ludrium - Alternate Universe - 01 Little Magic Girl.flac
  Size: 31811839 Hash: D24A0FDA986919F6D3059023CF3B46DC Accuracy: -m0
  Conclusion: CDDA 100%
  Signature: E771373A40909EBB7F40D5690CB2282C56AF113B
Код:
foobar2000 1.3.12 / Dynamic Range Meter 1.1.1
log date: 2018-02-01 12:28:59
--------------------------------------------------------------------------------
Analyzed: Ludrium / Alternate Universe
--------------------------------------------------------------------------------
DR         Peak         RMS     Duration Track
--------------------------------------------------------------------------------
DR7       -0.03 dB    -8.67 dB      4:31 01-Little Magic Girl
DR7       -0.03 dB    -8.28 dB      4:29 02-Live With Love
DR7       -0.03 dB    -8.34 dB      4:04 03-Sweet Bee
DR10      -1.15 dB   -12.50 dB      2:52 04-A Note
DR8       -0.09 dB    -8.97 dB      4:57 05-Wish Us Well
DR8       -0.08 dB    -8.66 dB      4:17 06-Waiting For That Day
DR7       -0.03 dB    -8.71 dB      3:00 07-Lament
DR7       -0.03 dB    -8.08 dB      4:18 08-Colors
DR7       -0.03 dB    -8.82 dB      4:33 09-Across The River
DR10      -0.03 dB   -12.14 dB      3:06 10-Together
DR7       -0.03 dB    -8.48 dB      5:05 11-Infinity Gaze
--------------------------------------------------------------------------------
Number of tracks:  11
Official DR value: DR8
Samplerate:        44100 Hz
Channels:          2
Bits per sample:   16
Bitrate:           900 kbps
Codec:             FLAC
================================================================================
#777
01. Lost in Mirrors [00:04:15]
02. Some Confusion [00:04:46]
03. An Intimate Relationship [00:04:15]
04. Bring Us Home [00:04:25]
05. Casual Fate Chain [00:04:19]
06. That Moment You Gave to Me [00:03:57]
07. Drawn into Motion [00:05:31]
08. Slave to Consequence [00:04:06]
09. Misunderstanding [00:05:05]
Released August 31, 2018
Источник: Bandcamp
Код:
-----------------------
DON'T MODIFY THIS FILE
-----------------------
PERFORMER: auCDtect Task Manager, ver. 1.6.0 RC1 build 1.6.0.1
Copyright (c) 2008-2010 y-soft. All rights reserved
[url=http://y-soft.org]http://y-soft.org[/url]
ANALYZER: auCDtect: CD records authenticity detector, version 0.8.2
Copyright (c) 2004 Oleg Berngardt. All rights reserved.
Copyright (c) 2004 Alexander Djourik. All rights reserved.
FILE: 09. Misunderstanding.flac
  Size: 32963542 Hash: 42C760FA6B5FE573CB53A0C9FAA0351B Accuracy: -m0
  Conclusion: CDDA 100%
  Signature: 9F76DDFD868B22BFA6D6A1090C38BBDD3319EA3B
FILE: 08. Slave to Consequence.flac
  Size: 30544325 Hash: BE6596AAD5E8000EB36FA1747BDF4F20 Accuracy: -m0
  Conclusion: CDDA 100%
  Signature: 47C0DE6766743A22DCBEFFBAAA9AA52B216A8E11
FILE: 07. Drawn into Motion.flac
  Size: 40100090 Hash: 3E2D40928D5C5730327197128E639D13 Accuracy: -m0
  Conclusion: CDDA 100%
  Signature: 71ED2C1DB33B547F4F5DAE73E16BC795C4CAC30F
FILE: 06. That Moment You Gave to Me.flac
  Size: 28536816 Hash: 839BF8DC75A50C5D37EDA71191649A5B Accuracy: -m0
  Conclusion: CDDA 100%
  Signature: 31DBE7671A88F903DB61EAAED59A2CEC99F53BFF
FILE: 05. Casual Fate Chain.flac
  Size: 31185004 Hash: 68B203A40F19BF8E12AADCEF7CE76E54 Accuracy: -m0
  Conclusion: CDDA 100%
  Signature: 47CF1887F3648479E4844AC211CCC874C03EB458
FILE: 04. Bring Us Home.flac
  Size: 32550933 Hash: 7BE73F531C8D36751E3797CC155B5F03 Accuracy: -m0
  Conclusion: CDDA 100%
  Signature: F5FF0F1DA307236125CD4F461DBF76E817F04892
FILE: 03. An Intimate Relationship.flac
  Size: 31064562 Hash: 9BDAFF59E59A7D368D77156D0299294A Accuracy: -m0
  Conclusion: CDDA 100%
  Signature: B0A78AFE85B1A80FA2F993C9A4359DF9D0D947A1
FILE: 02. Some Confusion.flac
  Size: 33529804 Hash: 03341BA66BFE4E97EACA3EB93D1AA5D4 Accuracy: -m0
  Conclusion: CDDA 100%
  Signature: 5D8921FBA02DE735AB46DEF1AA48B3A282DE04DD
FILE: 01. Lost in Mirrors.flac
  Size: 30100670 Hash: BB92ED3D1C249E5BAF7A8FA2D88E40C9 Accuracy: -m0
  Conclusion: CDDA 100%
  Signature: E162C250933655E5A4096C1289D8D353A3573004
Код:
foobar2000 1.3.12 / Dynamic Range Meter 1.1.1
log date: 2018-09-01 07:06:56
--------------------------------------------------------------------------------
Analyzed: Ludrium / Reflections
--------------------------------------------------------------------------------
DR         Peak         RMS     Duration Track
--------------------------------------------------------------------------------
DR8       -0.06 dB    -9.15 dB      4:15 01-Lost in Mirrors
DR8       -0.06 dB    -9.31 dB      4:47 02-Some Confusion
DR7       -0.06 dB    -8.19 dB      4:16 03-An Intimate Relationship
DR8       -0.06 dB    -8.96 dB      4:25 04-Bring Us Home
DR8       -0.06 dB    -8.78 dB      4:19 05-Casual Fate Chain
DR8       -0.06 dB    -9.01 dB      3:58 06-That Moment You Gave to Me
DR8       -0.06 dB    -9.28 dB      5:32 07-Drawn into Motion
DR8       -0.06 dB    -9.41 dB      4:07 08-Slave to Consequence
DR9       -0.06 dB   -10.54 dB      5:05 09-Misunderstanding
--------------------------------------------------------------------------------
Number of tracks:  9
Official DR value: DR8
Samplerate:        44100 Hz
Channels:          2
Bits per sample:   16
Bitrate:           858 kbps
Codec:             FLAC
================================================================================
#777
01. Subtle Cosmos [00:04:35]
02. The Song of Your Will [00:03:44]
03. All Things Divine [00:06:00]
04. Atmosphere [00:03:53]
05. Winds of Love [00:04:27]
06. Defender [00:04:17]
07. The Living Light [00:05:04]
08. Electric Eyes [00:05:01]
09. Celestial Fire [00:03:32]
10. The Chalice [00:05:57]
Состав:
Cody Carpenter - Lead Vocals, Keyboards, Guitars (tracks 2 and 3), Backing Vocals (tracks 5 and 9)
Ultraboss - Lead Guitars (tracks 1, 2, 8, and 10)
John Spiker - Backing Vocals (tracks 1-4, 6-8, and 10)
Released July 9, 2019
Источник: Bandcamp
Код:
-----------------------
DON'T MODIFY THIS FILE
-----------------------
PERFORMER: auCDtect Task Manager, ver. 1.6.0 RC1 build 1.6.0.1
Copyright (c) 2008-2010 y-soft. All rights reserved
[url=http://y-soft.org]http://y-soft.org[/url]
ANALYZER: auCDtect: CD records authenticity detector, version 0.8.2
Copyright (c) 2004 Oleg Berngardt. All rights reserved.
Copyright (c) 2004 Alexander Djourik. All rights reserved.
FILE: 10. The Chalice.flac
  Size: 45354735 Hash: F7799B7C5412BEC9FDBDD792EBBDF5D2 Accuracy: -m0
  Conclusion: CDDA 100%
  Signature: 3A706E10EBD06EAB5AF7B145A60D7DE3EEB999A5
FILE: 09. Celestial Fire.flac
  Size: 20879389 Hash: C8618F1376170EB420706868AAD99AA9 Accuracy: -m0
  Conclusion: CDDA 100%
  Signature: 72CA1CE8691400BDED5A0843B3B65FABB6018839
FILE: 08. Electric Eyes.flac
  Size: 35471317 Hash: DAFC304AEF60A204C38A699188D42C17 Accuracy: -m0
  Conclusion: CDDA 100%
  Signature: 5465178453186726F7EFA2670E2F71DAC4B34654
FILE: 07. The Living Light.flac
  Size: 37379537 Hash: DA720D79980EE7D96221133DC6F33D4B Accuracy: -m0
  Conclusion: CDDA 100%
  Signature: E971C679D4FEEEF5705C60F61AFB18F16FBDB217
FILE: 06. Defender.flac
  Size: 30114072 Hash: BF30103F07265B86D72C148B94F87182 Accuracy: -m0
  Conclusion: CDDA 100%
  Signature: 22470BC542A829E6BA8F9F1D264D43D8EC8EB342
FILE: 05. Winds of Love.flac
  Size: 33986355 Hash: 4A7A5E69229D74D361CF3A887DCFAAD7 Accuracy: -m0
  Conclusion: CDDA 100%
  Signature: 33780BB43492A6943739F0DDB36BAAAE6DF231B9
FILE: 04. Atmosphere.flac
  Size: 26560070 Hash: AB340C9F941521239461A44476795B50 Accuracy: -m0
  Conclusion: CDDA 100%
  Signature: 4CB19D4DC82ADEB6B9E9CDE8797F5D2952D2BB6E
FILE: 03. All Things Divine.flac
  Size: 45657732 Hash: CEA27714A7D6167313D89501CC687CA6 Accuracy: -m0
  Conclusion: CDDA 100%
  Signature: 5AC10BC3604DB9AC589AB325350B67958CF3FD8D
FILE: 02. The Song of Your Will.flac
  Size: 28677283 Hash: E1ACB01A32DDAEAAAFAC432C9D30D66C Accuracy: -m0
  Conclusion: CDDA 100%
  Signature: 97F83C1437FC3F0A83D3F91242464115C23B4E6F
FILE: 01. Subtle Cosmos.flac
  Size: 32664121 Hash: FE0E3CE8B0C332872A73DEAFA9D895BA Accuracy: -m0
  Conclusion: CDDA 99%
  Signature: 83555CBDE40C29B5AAC99316F92D5B84470E65B5
Код:
foobar2000 1.3.12 / Dynamic Range Meter 1.1.1
log date: 2019-07-10 05:33:13
--------------------------------------------------------------------------------
Analyzed: Ludrium / Stargazer
--------------------------------------------------------------------------------
DR         Peak         RMS     Duration Track
--------------------------------------------------------------------------------
DR7       -0.22 dB    -7.79 dB      4:35 01-Subtle Cosmos
DR6       -0.22 dB    -7.47 dB      3:44 02-The Song of Your Will
DR6       -0.22 dB    -7.64 dB      6:00 03-All Things Divine
DR7       -0.22 dB    -8.10 dB      3:53 04-Atmosphere
DR7       -0.22 dB    -7.92 dB      4:28 05-Winds of Love
DR7       -0.22 dB    -8.82 dB      4:17 06-Defender
DR8       -0.22 dB    -9.24 dB      5:05 07-The Living Light
DR7       -0.22 dB    -8.24 dB      5:02 08-Electric Eyes
DR9       -0.22 dB   -10.86 dB      3:32 09-Celestial Fire
DR7       -0.22 dB    -7.94 dB      5:57 10-The Chalice
--------------------------------------------------------------------------------
Number of tracks:  10
Official DR value: DR7
Samplerate:        44100 Hz
Channels:          2
Bits per sample:   16
Bitrate:           1013 kbps
Codec:             FLAC
================================================================================

Правила, инструкции, FAQ!!!
Торрент  Добавлен [10 июл 2019, 09:02] Скачать торрент Магнет ссылка
Скачать торрент
[ Размер 17.03 КБ / Просмотров 7 ]

Статус
Проверен 
 
Размер  1.21 ГБ
Приватный: Нет (DHT включён)
.torrent скачан  0
Как залить торрент? | Как скачать Torrent? | Ошибка в торренте? Качайте магнет  


     Отправить личное сообщение
   
Страница 1 из 1
Показать сообщения за:  Поле сортировки  
Начать новую тему Ответить на тему


Сейчас этот форум просматривают: нет зарегистрированных пользователей и гости: 0


Вы не можете начинать темы
Вы не можете отвечать на сообщения
Вы не можете редактировать свои сообщения
Вы не можете удалять свои сообщения
Вы не можете добавлять вложения

Перейти:  
Ресурс не предоставляет электронные версии произведений, а занимается лишь коллекционированием и каталогизацией ссылок, присылаемых и публикуемых на форуме нашими читателями. Если вы являетесь правообладателем какого-либо представленного материала и не желаете чтобы ссылка на него находилась в нашем каталоге, свяжитесь с нами и мы незамедлительно удалим её. Файлы для обмена на трекере предоставлены пользователями сайта, и администрация не несёт ответственности за их содержание. Просьба не заливать файлы, защищенные авторскими правами, а также файлы нелегального содержания!
cron