Начать новую тему Ответить на тему
Статистика раздачи
Размер: 540.49 МБ | Добавлен: 12 май 2019, 17:15 | Скачали: 0
Сидеров: 0  [0 байт/сек]    Личеров: 0  [0 байт/сек]
Пред. тема | След. тема 

Автор
Сообщение

СообщениеДобавлено: 12 май 2019, 17:15 

Ответить с цитатой 

Paul Glasse - One More Night
Жанр: Swing, Gypsy, Mandolin
Носитель: CD
Страна-производитель диска (релиза): США
Год издания: 1995
Издатель (лейбл): Dos Records
Номер по каталогу: dos 7502
Аудиокодек: FLAC (*.flac)
Тип рипа: tracks+.cue
Продолжительность: 01:39:51
Источник: What.CD
Наличие сканов в содержимом раздачи: нет
01. The Tilt (Glasse) - 3:04
02. Bar Time (Glasse) - 5:52
03. Slow Fall (Glasse) - 6:41
04. Both Sides of It (Glasse) - 4:08
05. Samba Talk (Glasse) - 2:59
06. One More Night (Glasse) - 5:28
07. Up and at 'Em (Glasse) - 3:01
08. The Big Sneak (Glasse) - 5:19
09. Move (Best-Walsh) - 3:25
10. Forgiveness and Dreams (Glasse) - 3:47
Код:
Exact Audio Copy V1.0 beta 3 from 29. August 2011
EAC extraction logfile from 6. October 2012, 6:19
Paul Glasse / Amazing
Used drive  : HP      DVD Writer 1040r   Adapter: 0  ID: 1
Read mode               : Secure
Utilize accurate stream : Yes
Defeat audio cache      : Yes
Make use of C2 pointers : No
Read offset correction                      : 6
Overread into Lead-In and Lead-Out          : No
Fill up missing offset samples with silence : Yes
Delete leading and trailing silent blocks   : No
Null samples used in CRC calculations       : Yes
Used interface                              : Native Win32 interface for Win NT & 2000
Gap handling                                : Appended to previous track
Used output format              : User Defined Encoder
Selected bitrate                : 1024 kBit/s
Quality                         : High
Add ID3 tag                     : No
Command line compressor         : C:\Program Files\Exact Audio Copy\Flac\flac.exe
Additional command line options : -8 -V -T "ARTIST=%artist%" -T "TITLE=%title%" -T "ALBUM=%albumtitle%" -T "DATE=%year%" -T "TRACKNUMBER=%tracknr%" -T "GENRE=%genre%" -T "PERFORMER=%albuminterpret%" -T "COMPOSER=%composer%" %haslyrics%--tag-from-file=LYRICS="%lyricsfile%"%haslyrics% -T "ALBUMARTIST=%albumartist%" -T "DISCNUMBER=%cdnumber%" -T "TOTALDISCS=%totalcds%" -T "TOTALTRACKS=%numtracks%" -T "COMMENT=%comment%" %source% -o %dest%
TOC of the extracted CD
     Track |   Start  |  Length  | Start sector | End sector
    ---------------------------------------------------------
        1  |  0:00.00 |  3:03.38 |         0    |    13762
        2  |  3:03.38 |  5:51.52 |     13763    |    40139
        3  |  8:55.15 |  6:41.26 |     40140    |    70240
        4  | 15:36.41 |  4:08.34 |     70241    |    88874
        5  | 19:45.00 |  2:59.08 |     88875    |   102307
        6  | 22:44.08 |  5:27.61 |    102308    |   126893
        7  | 28:11.69 |  3:01.04 |    126894    |   140472
        8  | 31:12.73 |  5:18.52 |    140473    |   164374
        9  | 36:31.50 |  3:25.34 |    164375    |   179783
       10  | 39:57.09 |  3:47.04 |    179784    |   196812
Track  1
     Filename C:\Program Files\Exact Audio Copy\Paul Glasse - One More Night (1995) [FLAC] {Amazing Records }\01 The Tilt.wav
     Pre-gap length  0:00:02.00
     Peak level 94.4 %
     Extraction speed 1.9 X
     Track quality 100.0 %
     Test CRC A3707397
     Copy CRC A3707397
     Accurately ripped (confidence 2)  [AA575008]  (AR v1)
     Copy OK
Track  2
     Filename C:\Program Files\Exact Audio Copy\Paul Glasse - One More Night (1995) [FLAC] {Amazing Records }\02 Bar Time.wav
     Peak level 90.9 %
     Extraction speed 2.2 X
     Track quality 100.0 %
     Test CRC AE975A4B
     Copy CRC AE975A4B
     Accurately ripped (confidence 2)  [A6BFC3B0]  (AR v1)
     Copy OK
Track  3
     Filename C:\Program Files\Exact Audio Copy\Paul Glasse - One More Night (1995) [FLAC] {Amazing Records }\03 Slow Fall.wav
     Peak level 72.6 %
     Extraction speed 2.2 X
     Track quality 99.9 %
     Test CRC 365825B8
     Copy CRC 365825B8
     Accurately ripped (confidence 2)  [99E33C6D]  (AR v1)
     Copy OK
Track  4
     Filename C:\Program Files\Exact Audio Copy\Paul Glasse - One More Night (1995) [FLAC] {Amazing Records }\04 Both Sides Of It.wav
     Peak level 63.5 %
     Extraction speed 2.3 X
     Track quality 100.0 %
     Test CRC 2084DF1A
     Copy CRC 2084DF1A
     Accurately ripped (confidence 2)  [F2E41739]  (AR v1)
     Copy OK
Track  5
     Filename C:\Program Files\Exact Audio Copy\Paul Glasse - One More Night (1995) [FLAC] {Amazing Records }\05 Samba Talk.wav
     Peak level 94.4 %
     Extraction speed 2.4 X
     Track quality 100.0 %
     Test CRC 6680520C
     Copy CRC 6680520C
     Accurately ripped (confidence 2)  [D0B8A4EE]  (AR v1)
     Copy OK
Track  6
     Filename C:\Program Files\Exact Audio Copy\Paul Glasse - One More Night (1995) [FLAC] {Amazing Records }\06 One More Night.wav
     Peak level 94.4 %
     Extraction speed 2.8 X
     Track quality 100.0 %
     Test CRC 58E8FDBB
     Copy CRC 58E8FDBB
     Accurately ripped (confidence 2)  [47BB3604]  (AR v1)
     Copy OK
Track  7
     Filename C:\Program Files\Exact Audio Copy\Paul Glasse - One More Night (1995) [FLAC] {Amazing Records }\07 Up And At 'Em.wav
     Peak level 91.7 %
     Extraction speed 2.6 X
     Track quality 100.0 %
     Test CRC EC15F641
     Copy CRC EC15F641
     Accurately ripped (confidence 2)  [AD586D90]  (AR v1)
     Copy OK
Track  8
     Filename C:\Program Files\Exact Audio Copy\Paul Glasse - One More Night (1995) [FLAC] {Amazing Records }\08 The Big Sneak.wav
     Peak level 94.4 %
     Extraction speed 2.5 X
     Track quality 99.9 %
     Test CRC 99C467A7
     Copy CRC 99C467A7
     Accurately ripped (confidence 2)  [F687667A]  (AR v1)
     Copy OK
Track  9
     Filename C:\Program Files\Exact Audio Copy\Paul Glasse - One More Night (1995) [FLAC] {Amazing Records }\09 Move.wav
     Peak level 94.3 %
     Extraction speed 2.9 X
     Track quality 100.0 %
     Test CRC 3E3FDC7D
     Copy CRC 3E3FDC7D
     Accurately ripped (confidence 2)  [9AFB1AA3]  (AR v1)
     Copy OK
Track 10
     Filename C:\Program Files\Exact Audio Copy\Paul Glasse - One More Night (1995) [FLAC] {Amazing Records }\10 Forgiveness And Dreams.wav
     Peak level 64.1 %
     Extraction speed 2.3 X
     Track quality 99.9 %
     Test CRC 297BCC9A
     Copy CRC 297BCC9A
     Accurately ripped (confidence 2)  [EB9DED21]  (AR v1)
     Copy OK
All tracks accurately ripped
No errors occurred
End of status report
---- CUETools DB Plugin V2.1.3
[CTDB TOCID: alHHNE001XSKjHviKdUz_mwvkCs-] found, Submit result: already submitted
[e0d8b042] (2/2) Accurately ripped
==== Log checksum 74A4F11BCE7F558981FB8207FA8EFDD4B057BF32322CB78B0E7CB44480D1E06E ====
Код:
REM GENRE Jazz
REM DATE 1995
REM DISCID A10A400A
REM COMMENT "ExactAudioCopy v1.0b3"
PERFORMER "Paul Glasse"
TITLE "One More Night CD1"
FILE "01 - The Tilt.wav" WAVE
  TRACK 01 AUDIO
    TITLE "The Tilt"
    PERFORMER "Paul Glasse"
    INDEX 01 00:00:00
FILE "02 - Bar Time.wav" WAVE
  TRACK 02 AUDIO
    TITLE "Bar Time"
    PERFORMER "Paul Glasse"
    INDEX 01 00:00:00
FILE "03 - Slow Fall.wav" WAVE
  TRACK 03 AUDIO
    TITLE "Slow Fall"
    PERFORMER "Paul Glasse"
    INDEX 01 00:00:00
FILE "04 - Both Sides of It.wav" WAVE
  TRACK 04 AUDIO
    TITLE "Both Sides of It"
    PERFORMER "Paul Glasse"
    INDEX 01 00:00:00
FILE "05 - Samba Talk.wav" WAVE
  TRACK 05 AUDIO
    TITLE "Samba Talk"
    PERFORMER "Paul Glasse"
    INDEX 01 00:00:00
FILE "06 - One More Night.wav" WAVE
  TRACK 06 AUDIO
    TITLE "One More Night"
    PERFORMER "Paul Glasse"
    INDEX 01 00:00:00
FILE "07 - Up and at 'Em.wav" WAVE
  TRACK 07 AUDIO
    TITLE "Up and at 'Em"
    PERFORMER "Paul Glasse"
    INDEX 01 00:00:00
FILE "08 - The Big Sneak.wav" WAVE
  TRACK 08 AUDIO
    TITLE "The Big Sneak"
    PERFORMER "Paul Glasse"
    INDEX 01 00:00:00
FILE "09 - Move.wav" WAVE
  TRACK 09 AUDIO
    TITLE "Move"
    PERFORMER "Paul Glasse"
    INDEX 01 00:00:00
FILE "10 - Forgiveness and Dreams.wav" WAVE
  TRACK 10 AUDIO
    TITLE "Forgiveness and Dreams"
    PERFORMER "Paul Glasse"
    INDEX 01 00:00:00
Код:
[CUETools log; Date: 04.05.2019 0:42:28; Version: 2.1.6]
[CTDB TOCID: alHHNE001XSKjHviKdUz_mwvkCs-] found.
Track | CTDB Status
  1   | (4/4) Accurately ripped
  2   | (4/4) Accurately ripped
  3   | (4/4) Accurately ripped
  4   | (4/4) Accurately ripped
  5   | (4/4) Accurately ripped
  6   | (4/4) Accurately ripped
  7   | (4/4) Accurately ripped
  8   | (4/4) Accurately ripped
  9   | (4/4) Accurately ripped
 10   | (4/4) Accurately ripped
[AccurateRip ID: 00112552-00886f16-a10a400a] found.
Track   [  CRC   |   V2   ] Status
 01     [aa575008|51d4bef3] (2+0/2) Accurately ripped
 02     [a6bfc3b0|41c2509b] (2+0/2) Accurately ripped
 03     [99e33c6d|969fac2f] (2+0/2) Accurately ripped
 04     [f2e41739|85a8ff23] (2+0/2) Accurately ripped
 05     [d0b8a4ee|657840c6] (2+0/2) Accurately ripped
 06     [47bb3604|db3613d8] (2+0/2) Accurately ripped
 07     [ad586d90|6d67962d] (2+0/2) Accurately ripped
 08     [f687667a|4e8a70ef] (2+0/2) Accurately ripped
 09     [9afb1aa3|6f6c4bac] (2+0/2) Accurately ripped
 10     [eb9ded21|dd48aa7a] (2+0/2) Accurately ripped
Track Peak [ CRC32  ] [W/O NULL] [  LOG   ]
 --   94,4 [C54F0C4F] [8B35DE28]
 01   94,4 [A3707397] [EF82DAEC]   CRC32
 02   90,9 [AE975A4B] [33F47E8F]   CRC32
 03   72,6 [365825B8] [7C8B214E]   CRC32
 04   63,5 [2084DF1A] [B34E87AB]   CRC32
 05   94,4 [6680520C] [E3AD1E39]   CRC32
 06   94,4 [58E8FDBB] [FAD18C72]   CRC32
 07   91,7 [EC15F641] [45BBD5EB]   CRC32
 08   94,4 [99C467A7] [0927FB63]   CRC32
 09   94,3 [3E3FDC7D] [727DA5F7]   CRC32
 10   64,1 [297BCC9A] [02F7026A]   CRC32
01. New Roux - 5:10
02. A Bit of Good - 4:43
03. Stanley Steamer (Watkins-Glasse) - 4:08
04. It's Only Summer (Glasse) - 5:27
05. Air Mail Special (Goodman-Christian) - 2:53
06. Little Niles (Weston) - 4:13
07. The Anthem (Glasse) - 4:41
08. Until a Better Moment (Glasse) - 3:57
09. Talk That Talk (Glasse) - 4:22
10. Paper Bag Rag (Glasse) - 3:32
11. The Road Home (Glasse) - 1:52
12. Thang (Glasse) - 3:52
13. Joeography (Richey) - 3:23
14. Familiar Haunt (Glasse) - 3:54
Код:
Exact Audio Copy V1.0 beta 3 from 29. August 2011
EAC extraction logfile from 6. October 2012, 10:15
Paul Glasse / One More Night
Used drive  : HP      DVD Writer 1040r   Adapter: 0  ID: 1
Read mode               : Secure
Utilize accurate stream : Yes
Defeat audio cache      : Yes
Make use of C2 pointers : No
Read offset correction                      : 6
Overread into Lead-In and Lead-Out          : No
Fill up missing offset samples with silence : Yes
Delete leading and trailing silent blocks   : No
Null samples used in CRC calculations       : Yes
Used interface                              : Native Win32 interface for Win NT & 2000
Gap handling                                : Appended to previous track
Used output format              : User Defined Encoder
Selected bitrate                : 1024 kBit/s
Quality                         : High
Add ID3 tag                     : No
Command line compressor         : C:\Program Files\Exact Audio Copy\Flac\flac.exe
Additional command line options : -8 -V -T "ARTIST=%artist%" -T "TITLE=%title%" -T "ALBUM=%albumtitle%" -T "DATE=%year%" -T "TRACKNUMBER=%tracknr%" -T "GENRE=%genre%" -T "PERFORMER=%albuminterpret%" -T "COMPOSER=%composer%" %haslyrics%--tag-from-file=LYRICS="%lyricsfile%"%haslyrics% -T "ALBUMARTIST=%albumartist%" -T "DISCNUMBER=%cdnumber%" -T "TOTALDISCS=%totalcds%" -T "TOTALTRACKS=%numtracks%" -T "COMMENT=%comment%" %source% -o %dest%
TOC of the extracted CD
     Track |   Start  |  Length  | Start sector | End sector
    ---------------------------------------------------------
        1  |  0:00.00 |  5:09.63 |         0    |    23237
        2  |  5:09.63 |  4:42.74 |     23238    |    44461
        3  |  9:52.62 |  4:08.12 |     44462    |    63073
        4  | 14:00.74 |  5:26.69 |     63074    |    87592
        5  | 19:27.68 |  2:53.29 |     87593    |   100596
        6  | 22:21.22 |  4:13.33 |    100597    |   119604
        7  | 26:34.55 |  4:41.35 |    119605    |   140714
        8  | 31:16.15 |  3:56.65 |    140715    |   158479
        9  | 35:13.05 |  4:22.33 |    158480    |   178162
       10  | 39:35.38 |  3:32.36 |    178163    |   194098
       11  | 43:07.74 |  1:52.21 |    194099    |   202519
       12  | 45:00.20 |  3:52.21 |    202520    |   219940
       13  | 48:52.41 |  3:22.38 |    219941    |   235128
       14  | 52:15.04 |  3:54.10 |    235129    |   252688
Track  1
     Filename C:\Program Files\Exact Audio Copy\Paul Glasse - One More Night (1995) [FLAC] {Amazing Records }\01 New Roux.wav
     Pre-gap length  0:00:02.00
     Peak level 94.4 %
     Extraction speed 2.1 X
     Track quality 100.0 %
     Test CRC F731D418
     Copy CRC F731D418
     Accurately ripped (confidence 2)  [5C4232BC]  (AR v1)
     Copy OK
Track  2
     Filename C:\Program Files\Exact Audio Copy\Paul Glasse - One More Night (1995) [FLAC] {Amazing Records }\02 A Bit of Good.wav
     Peak level 94.4 %
     Extraction speed 2.2 X
     Track quality 100.0 %
     Test CRC D0FB0233
     Copy CRC D0FB0233
     Accurately ripped (confidence 2)  [6C0BE2A0]  (AR v1)
     Copy OK
Track  3
     Filename C:\Program Files\Exact Audio Copy\Paul Glasse - One More Night (1995) [FLAC] {Amazing Records }\03 Stanley Steamer.wav
     Peak level 94.4 %
     Extraction speed 2.3 X
     Track quality 100.0 %
     Test CRC 5247B8C4
     Copy CRC 5247B8C4
     Accurately ripped (confidence 2)  [9EF3B197]  (AR v1)
     Copy OK
Track  4
     Filename C:\Program Files\Exact Audio Copy\Paul Glasse - One More Night (1995) [FLAC] {Amazing Records }\04 It;s Only Summer.wav
     Peak level 94.4 %
     Extraction speed 2.5 X
     Track quality 100.0 %
     Test CRC 266C341B
     Copy CRC 266C341B
     Accurately ripped (confidence 2)  [D6FDCC77]  (AR v1)
     Copy OK
Track  5
     Filename C:\Program Files\Exact Audio Copy\Paul Glasse - One More Night (1995) [FLAC] {Amazing Records }\05 Air Mail Special.wav
     Peak level 94.3 %
     Extraction speed 2.4 X
     Track quality 100.0 %
     Test CRC EA6979C8
     Copy CRC EA6979C8
     Accurately ripped (confidence 2)  [DC8A8FC6]  (AR v1)
     Copy OK
Track  6
     Filename C:\Program Files\Exact Audio Copy\Paul Glasse - One More Night (1995) [FLAC] {Amazing Records }\06 Little Niles.wav
     Peak level 94.4 %
     Extraction speed 2.6 X
     Track quality 100.0 %
     Test CRC CC4052B2
     Copy CRC CC4052B2
     Accurately ripped (confidence 2)  [8170467F]  (AR v1)
     Copy OK
Track  7
     Filename C:\Program Files\Exact Audio Copy\Paul Glasse - One More Night (1995) [FLAC] {Amazing Records }\07 The Anthem.wav
     Peak level 94.4 %
     Extraction speed 2.8 X
     Track quality 100.0 %
     Test CRC 7ABB7689
     Copy CRC 7ABB7689
     Accurately ripped (confidence 2)  [F195765A]  (AR v1)
     Copy OK
Track  8
     Filename C:\Program Files\Exact Audio Copy\Paul Glasse - One More Night (1995) [FLAC] {Amazing Records }\08 Until a Better Moment.wav
     Peak level 88.6 %
     Extraction speed 2.8 X
     Track quality 100.0 %
     Test CRC C910645B
     Copy CRC C910645B
     Accurately ripped (confidence 2)  [2F4178BA]  (AR v1)
     Copy OK
Track  9
     Filename C:\Program Files\Exact Audio Copy\Paul Glasse - One More Night (1995) [FLAC] {Amazing Records }\09 Talk That Talk.wav
     Peak level 94.3 %
     Extraction speed 3.0 X
     Track quality 100.0 %
     Test CRC ABAFF467
     Copy CRC ABAFF467
     Accurately ripped (confidence 2)  [8537AA64]  (AR v1)
     Copy OK
Track 10
     Filename C:\Program Files\Exact Audio Copy\Paul Glasse - One More Night (1995) [FLAC] {Amazing Records }\10 Paper Bag Rag.wav
     Peak level 94.4 %
     Extraction speed 2.3 X
     Track quality 99.9 %
     Test CRC CDE80016
     Copy CRC CDE80016
     Accurately ripped (confidence 2)  [6108D6E7]  (AR v1)
     Copy OK
Track 11
     Filename C:\Program Files\Exact Audio Copy\Paul Glasse - One More Night (1995) [FLAC] {Amazing Records }\11 The Road to Home.wav
     Peak level 94.4 %
     Extraction speed 2.7 X
     Track quality 100.0 %
     Test CRC F4AFD121
     Copy CRC F4AFD121
     Accurately ripped (confidence 2)  [68D28755]  (AR v1)
     Copy OK
Track 12
     Filename C:\Program Files\Exact Audio Copy\Paul Glasse - One More Night (1995) [FLAC] {Amazing Records }\12 Thang.wav
     Pre-gap length  0:00:00.29
     Peak level 94.4 %
     Extraction speed 3.1 X
     Track quality 100.0 %
     Test CRC 025D6239
     Copy CRC 025D6239
     Accurately ripped (confidence 2)  [1564C767]  (AR v1)
     Copy OK
Track 13
     Filename C:\Program Files\Exact Audio Copy\Paul Glasse - One More Night (1995) [FLAC] {Amazing Records }\13 Joeography.wav
     Pre-gap length  0:00:01.60
     Peak level 84.1 %
     Extraction speed 2.4 X
     Track quality 99.9 %
     Test CRC 2C9D7A4D
     Copy CRC 2C9D7A4D
     Accurately ripped (confidence 2)  [C7C91FF5]  (AR v1)
     Copy OK
Track 14
     Filename C:\Program Files\Exact Audio Copy\Paul Glasse - One More Night (1995) [FLAC] {Amazing Records }\14 Familiar Haunt.wav
     Pre-gap length  0:00:00.29
     Peak level 94.4 %
     Extraction speed 3.2 X
     Track quality 100.0 %
     Test CRC 7071B7A9
     Copy CRC 7071B7A9
     Accurately ripped (confidence 2)  [8CD542F0]  (AR v1)
     Copy OK
All tracks accurately ripped
No errors occurred
End of status report
---- CUETools DB Plugin V2.1.3
[CTDB TOCID: KFaCLk8xr4gSFfGYeUgsWy4jVwg-] found, Submit result: already submitted
[47d0f46b] (2/2) Accurately ripped
==== Log checksum 54A46F2E502C2FFC6CF4F804ACC7EA4FEDF7F2499D496311E7B71515725EF7D1 ====
Код:
REM GENRE Jazz
REM DATE 1995
REM DISCID CF0D290E
REM COMMENT "ExactAudioCopy v1.0b3"
PERFORMER "Paul Glasse"
TITLE "One More Night CD2"
FILE "01 - New Roux.wav" WAVE
  TRACK 01 AUDIO
    TITLE "New Roux"
    PERFORMER "Paul Glasse"
    INDEX 01 00:00:00
FILE "02 - A Bit of Good.wav" WAVE
  TRACK 02 AUDIO
    TITLE "A Bit of Good"
    PERFORMER "Paul Glasse"
    INDEX 01 00:00:00
FILE "03 - Stanley Steamer.wav" WAVE
  TRACK 03 AUDIO
    TITLE "Stanley Steamer"
    PERFORMER "Paul Glasse"
    INDEX 01 00:00:00
FILE "04 - It's Only Summer.wav" WAVE
  TRACK 04 AUDIO
    TITLE "It's Only Summer"
    PERFORMER "Paul Glasse"
    INDEX 01 00:00:00
FILE "05 - Air Mail Special.wav" WAVE
  TRACK 05 AUDIO
    TITLE "Air Mail Special"
    PERFORMER "Paul Glasse"
    INDEX 01 00:00:00
FILE "06 - Little Niles.wav" WAVE
  TRACK 06 AUDIO
    TITLE "Little Niles"
    PERFORMER "Paul Glasse"
    INDEX 01 00:00:00
FILE "07 - The Anthem.wav" WAVE
  TRACK 07 AUDIO
    TITLE "The Anthem"
    PERFORMER "Paul Glasse"
    INDEX 01 00:00:00
FILE "08 - Until a Better Moment.wav" WAVE
  TRACK 08 AUDIO
    TITLE "Until a Better Moment"
    PERFORMER "Paul Glasse"
    INDEX 01 00:00:00
FILE "09 - Talk That Talk.wav" WAVE
  TRACK 09 AUDIO
    TITLE "Talk That Talk"
    PERFORMER "Paul Glasse"
    INDEX 01 00:00:00
FILE "10 - Paper Bag Rag.wav" WAVE
  TRACK 10 AUDIO
    TITLE "Paper Bag Rag"
    PERFORMER "Paul Glasse"
    INDEX 01 00:00:00
FILE "11 - The Road Home.wav" WAVE
  TRACK 11 AUDIO
    TITLE "The Road Home"
    PERFORMER "Paul Glasse"
    INDEX 01 00:00:00
  TRACK 12 AUDIO
    TITLE "Thang"
    PERFORMER "Paul Glasse"
    INDEX 00 01:51:74
FILE "12 - Thang.wav" WAVE
    INDEX 01 00:00:00
  TRACK 13 AUDIO
    TITLE "Joeography"
    PERFORMER "Paul Glasse"
    INDEX 00 03:50:51
FILE "13 - Joeography.wav" WAVE
    INDEX 01 00:00:00
  TRACK 14 AUDIO
    TITLE "Familiar Haunt"
    PERFORMER "Paul Glasse"
    INDEX 00 03:22:16
FILE "14 - Familiar Haunt.wav" WAVE
    INDEX 01 00:00:00
Код:
[CUETools log; Date: 04.05.2019 0:42:33; Version: 2.1.6]
[CTDB TOCID: KFaCLk8xr4gSFfGYeUgsWy4jVwg-] found.
Track | CTDB Status
  1   | (4/4) Accurately ripped
  2   | (4/4) Accurately ripped
  3   | (4/4) Accurately ripped
  4   | (4/4) Accurately ripped
  5   | (4/4) Accurately ripped
  6   | (4/4) Accurately ripped
  7   | (4/4) Accurately ripped
  8   | (4/4) Accurately ripped
  9   | (4/4) Accurately ripped
 10   | (4/4) Accurately ripped
 11   | (4/4) Accurately ripped
 12   | (4/4) Accurately ripped
 13   | (4/4) Accurately ripped
 14   | (4/4) Accurately ripped
[AccurateRip ID: 001ed3d1-0142be52-cf0d290e] found.
Track   [  CRC   |   V2   ] Status
 01     [5c4232bc|abbccc33] (2+0/2) Accurately ripped
 02     [6c0be2a0|0ece3095] (2+0/2) Accurately ripped
 03     [9ef3b197|110fb5c7] (2+0/2) Accurately ripped
 04     [d6fdcc77|c497c86a] (2+0/2) Accurately ripped
 05     [dc8a8fc6|e111c062] (2+0/2) Accurately ripped
 06     [8170467f|e9d1df84] (2+0/2) Accurately ripped
 07     [f195765a|2c377c2f] (2+0/2) Accurately ripped
 08     [2f4178ba|f40294e9] (2+0/2) Accurately ripped
 09     [8537aa64|e489c197] (2+0/2) Accurately ripped
 10     [6108d6e7|86ff4e57] (2+0/2) Accurately ripped
 11     [68d28755|61028c27] (2+0/2) Accurately ripped
 12     [1564c767|81063f38] (2+0/2) Accurately ripped
 13     [c7c91ff5|b4b7d803] (2+0/2) Accurately ripped
 14     [8cd542f0|c88651b7] (2+0/2) Accurately ripped
Track Peak [ CRC32  ] [W/O NULL] [  LOG   ]
 --   94,4 [F599EA88] [B6142935]
 01   94,4 [F731D418] [91CF6E77]   CRC32
 02   94,4 [D0FB0233] [A4955727]   CRC32
 03   94,4 [5247B8C4] [D18FE7C8]   CRC32
 04   94,4 [266C341B] [5B416613]   CRC32
 05   94,3 [EA6979C8] [C4C02B31]   CRC32
 06   94,4 [CC4052B2] [2091F385]   CRC32
 07   94,4 [7ABB7689] [12B35CB9]   CRC32
 08   88,6 [C910645B] [ED6B0AC0]   CRC32
 09   94,3 [ABAFF467] [472FE674]   CRC32
 10   94,4 [CDE80016] [D1ABBB2F]   CRC32
 11   94,4 [F4AFD121] [D501663A]   CRC32
 12   94,4 [025D6239] [0BA1035B]   CRC32
 13   84,1 [2C9D7A4D] [1570D58F]   CRC32
 14   94,4 [7071B7A9] [7F079807]   CRC32
Paul Glasse - acoustic mandolin, electric 5-string mandolin
Jerry Douglas - resonator guitar
Mitch Watkins - archtop guitar, acoustic guitar
Gene Elders - violin
Bill Ginn - electric piano, acoustic piano
Spencer Starnes - acoustic bass
A. D. Mannion - drums
Steve Meador - drums, percussion
Steve Schwelling - percussion
Правила, инструкции, FAQ!!!
Торрент  Добавлен [12 май 2019, 17:15] Скачать торрент Магнет ссылка
Скачать торрент
[ Размер 12.98 КБ / Просмотров 12 ]

Статус
Проверен 
 
Размер  540.49 МБ
Приватный: Нет (DHT включён)
.torrent скачан  0
Как залить торрент? | Как скачать Torrent? | Ошибка в торренте? Качайте магнет  


     Отправить личное сообщение
   
Страница 1 из 1
Показать сообщения за:  Поле сортировки  
Начать новую тему Ответить на тему


Сейчас этот форум просматривают: нет зарегистрированных пользователей и гости: 1


Вы не можете начинать темы
Вы не можете отвечать на сообщения
Вы не можете редактировать свои сообщения
Вы не можете удалять свои сообщения
Вы не можете добавлять вложения

Перейти:  
Ресурс не предоставляет электронные версии произведений, а занимается лишь коллекционированием и каталогизацией ссылок, присылаемых и публикуемых на форуме нашими читателями. Если вы являетесь правообладателем какого-либо представленного материала и не желаете чтобы ссылка на него находилась в нашем каталоге, свяжитесь с нами и мы незамедлительно удалим её. Файлы для обмена на трекере предоставлены пользователями сайта, и администрация не несёт ответственности за их содержание. Просьба не заливать файлы, защищенные авторскими правами, а также файлы нелегального содержания!