Начать новую тему Ответить на тему
Статистика раздачи
Размер: 1.1 ГБ | Добавлен: 08 июн 2019, 08:56 | Скачали: 1
Сидеров: 0  [0 байт/сек]    Личеров: 0  [0 байт/сек]
Пред. тема | След. тема 

Автор
Сообщение

СообщениеДобавлено: 08 июн 2019, 08:56 

Ответить с цитатой 

Lise Davidsen, Philharmonia Orchestra, Esa-Pekka Salonen / R. Strauss - Four Last Songs & Wagner - Arias from Tannhauser
Формат записи/Источник записи: [TR24][OF]
Наличие водяных знаков: Нет
Год издания/переиздания диска: 2019
Жанр: Classical
Издатель (лейбл): Decca
Продолжительность: 01:03:50
Наличие сканов в содержимом раздачи: Буклет PDF
Треклист:
01. Wagner: Tannhäuser, WWV 70 / Act 2 - "Dich, teure Halle, grüß ich wieder" 3:41
02. Wagner: Tannhäuser, WWV 70 / Act 3 - "Allmächt'ge Jungfrau, hör mein Flehen!" 7:33
03. Strauss, R: Ariadne auf Naxos - "Es gibt ein Reich" 6:35
Strauss, R: Vier Lieder Op. 27 14:58
04. 1. Ruhe, meine Seele! 4:36
05. 2. Cäcilie 2:19
06. 3. Heimliche Aufforderung (Arr. Heger) 3:29
07. 4. Morgen! 4:34
08. Strauss, R: Fünf Lieder, Op. 41 - 1. Wiegenlied 4:12
09. Strauss, R: Malven, TrV 297 (Arr. Rihm) 3:01
Strauss, R: Vier letzte Lieder 23:50
10. 1. Frühling 3:44
11. 2. September 5:28
12. 3. Beim Schlafengehen 5:39
13. 4. Im Abendrot 8:59
Philharmonia Orchestra
Esa-Pekka Salonen
Lise Davidsen (soprano)
Recorded: 2018-10-07
Контейнер: FLAC (*.flac)
Тип рипа: tracks
Разрядность: 24/96
Формат: PCM
Количество каналов: 2.0
Код:
foobar2000 1.4.3 / Dynamic Range Meter 1.1.1
log date: 2019-05-30 10:37:06
--------------------------------------------------------------------------------
Analyzed: Lise Davidsen, Philharmonia Orchestra & Esa-Pekka Salonen / Richard Strauss: Four Last Songs / Wagner: Arias from Tannhäuser
--------------------------------------------------------------------------------
DR         Peak         RMS     Duration Track
--------------------------------------------------------------------------------
DR11       0.00 dB   -16.53 dB      3:41 01-"Dich, teure Halle, grüß ich wieder"
DR14      -0.87 dB   -21.90 dB      7:33 02-"Allmächt'ge Jungfrau, hör mein Flehen!"
DR13       0.00 dB   -18.03 dB      6:36 03-"Es gibt ein Reich"
DR14       0.00 dB   -21.34 dB      4:36 04-1. Ruhe, meine Seele!
DR11       0.00 dB   -16.59 dB      2:20 05-2. Cäcilie
DR12       0.00 dB   -17.85 dB      3:29 06-3. Heimliche Aufforderung (Arr. Heger)
DR14      -8.61 dB   -29.28 dB      4:34 07-4. Morgen!
DR14      -0.84 dB   -21.50 dB      4:12 08-1. Wiegenlied
DR14      -3.06 dB   -22.62 dB      3:02 09-Malven, TrV 297 (Arr. Rihm)
DR11      -0.27 dB   -16.65 dB      3:45 10-1. Frühling
DR12      -1.78 dB   -19.80 dB      5:28 11-2. September
DR14       0.00 dB   -19.56 dB      5:39 12-3. Beim Schlafengehen
DR15      -1.52 dB   -22.36 dB      8:59 13-4. Im Abendrot
--------------------------------------------------------------------------------
Number of tracks:  13
Official DR value: DR13
Samplerate:        96000 Hz
Channels:          2
Bits per sample:   24
Bitrate:           2425 kbps
Codec:             FLAC
================================================================================
Источник (релизер): https://www.qobuz.com/us-en/album/richard-strauss-four-last-songs-wagner-arias-fr...en/jy9sowqah8x9a
Правила, инструкции, FAQ!!!
Торрент  Добавлен [08 июн 2019, 08:56] Скачать торрент Магнет ссылка
Скачать торрент
[ Размер 45.36 КБ / Просмотров 7 ]

Статус
Проверен 
 
Размер  1.1 ГБ
Приватный: Нет (DHT включён)
.torrent скачан  1
Как залить торрент? | Как скачать Torrent? | Ошибка в торренте? Качайте магнет  


     Отправить личное сообщение
   
Страница 1 из 1
Показать сообщения за:  Поле сортировки  
Начать новую тему Ответить на тему


Сейчас этот форум просматривают: нет зарегистрированных пользователей и гости: 0


Вы не можете начинать темы
Вы не можете отвечать на сообщения
Вы не можете редактировать свои сообщения
Вы не можете удалять свои сообщения
Вы не можете добавлять вложения

Перейти:  
Ресурс не предоставляет электронные версии произведений, а занимается лишь коллекционированием и каталогизацией ссылок, присылаемых и публикуемых на форуме нашими читателями. Если вы являетесь правообладателем какого-либо представленного материала и не желаете чтобы ссылка на него находилась в нашем каталоге, свяжитесь с нами и мы незамедлительно удалим её. Файлы для обмена на трекере предоставлены пользователями сайта, и администрация не несёт ответственности за их содержание. Просьба не заливать файлы, защищенные авторскими правами, а также файлы нелегального содержания!
cron