Начать новую тему Ответить на тему
Статистика раздачи
Размер: 1.47 ГБ | Добавлен: 08 июн 2019, 08:56 | Скачали: 2
Сидеров: 0  [0 байт/сек]    Личеров: 0  [0 байт/сек]
Пред. тема | След. тема 

Автор
Сообщение

СообщениеДобавлено: 08 июн 2019, 08:56 

Ответить с цитатой 

Skride Piano Quartet / Mozart, Brahms & Mahler - Piano Quartets
Формат записи/Источник записи: [TR24][OF]
Наличие водяных знаков: Нет
Год издания/переиздания диска: 2019
Жанр: Classical
Издатель (лейбл): Orfeo
Продолжительность: 01:12:26
Наличие сканов в содержимом раздачи: Буклет PDF
Треклист:
Mozart: Klavierquartett Nr. 1 g-Moll, KV 478 (1785) 24:11
01. I. Allegro 10:22
02. II. Andante 6:11
03. III. Rondo. Allegro moderato 7:38
Mahler: Klavierquartettsatz a-Moll (ca. 1876 / 78) 10:54
04. I. Nicht zu schnell 10:54
Brahms: Klavierquartett Nr. 1 g-Moll, op. 25 (1861) 37:21
05. I. Allegro 12:47
06. II. Intermezzo. Allegro ma non troppo - Trio. Animato 7:27
07. III. Andante con moto 8:59
08. IV. Rondo alla zingarese. Presto 8:08
Skride Piano Quartet
Baiba Skride, Harriet Krijgh, Lauma Skride
Контейнер: FLAC (*.flac)
Тип рипа: tracks
Разрядность: 24/96
Формат: PCM
Количество каналов: 2.0
Код:
foobar2000 1.4.3 / Dynamic Range Meter 1.1.1
log date: 2019-05-31 14:46:52
--------------------------------------------------------------------------------
Analyzed: Baiba Skride, Lise Berthaud, Harriet Krijgh & Lauma Skride / Mozart, Brahms & Mahler: Piano Quartets
--------------------------------------------------------------------------------
DR         Peak         RMS     Duration Track
--------------------------------------------------------------------------------
DR10      -1.55 dB   -15.62 dB     10:22 01-Piano Quartet No. 1 in G Minor, K. 478: I. Allegro
DR11      -3.44 dB   -19.40 dB      6:11 02-Piano Quartet No. 1 in G Minor, K. 478: II. Andante
DR11      -1.80 dB   -16.60 dB      7:39 03-Piano Quartet No. 1 in G Minor, K. 478: III. Rondo. Allegro moderato
DR9       -0.25 dB   -14.11 dB     10:55 04-Piano Quartet in A Minor: I. Nicht zu schnell
DR10       0.00 dB   -14.30 dB     12:48 05-Piano Quartet No. 1 in G Minor, Op. 25: I. Allegro
DR12      -0.43 dB   -16.78 dB      7:27 06-Piano Quartet No. 1 in G Minor, Op. 25: II. Intermezzo. Allegro ma non troppo - Trio. Animato
DR9       -0.06 dB   -13.88 dB      8:59 07-Piano Quartet No. 1 in G Minor, Op. 25: III. Andante con moto
DR10      -0.26 dB   -13.23 dB      8:08 08-Piano Quartet No. 1 in G Minor, Op. 25: IV. Rondo alla zingarese. Presto
--------------------------------------------------------------------------------
Number of tracks:  8
Official DR value: DR10
Samplerate:        96000 Hz
Channels:          2
Bits per sample:   24
Bitrate:           2953 kbps
Codec:             FLAC
================================================================================
Источник (релизер): https://www.qobuz.com/us-en/album/mozart-brahms-mahler-piano-quartets-lauma-skrid...de/l4wq7cqjr7xta
Правила, инструкции, FAQ!!!
Торрент  Добавлен [08 июн 2019, 08:56] Скачать торрент Магнет ссылка
Скачать торрент
[ Размер 30.74 КБ / Просмотров 7 ]

Статус
Проверен 
 
Размер  1.47 ГБ
Приватный: Нет (DHT включён)
.torrent скачан  2
Как залить торрент? | Как скачать Torrent? | Ошибка в торренте? Качайте магнет  


     Отправить личное сообщение
   
Страница 1 из 1
Показать сообщения за:  Поле сортировки  
Начать новую тему Ответить на тему


Сейчас этот форум просматривают: нет зарегистрированных пользователей и гости: 0


Вы не можете начинать темы
Вы не можете отвечать на сообщения
Вы не можете редактировать свои сообщения
Вы не можете удалять свои сообщения
Вы не можете добавлять вложения

Перейти:  
Ресурс не предоставляет электронные версии произведений, а занимается лишь коллекционированием и каталогизацией ссылок, присылаемых и публикуемых на форуме нашими читателями. Если вы являетесь правообладателем какого-либо представленного материала и не желаете чтобы ссылка на него находилась в нашем каталоге, свяжитесь с нами и мы незамедлительно удалим её. Файлы для обмена на трекере предоставлены пользователями сайта, и администрация не несёт ответственности за их содержание. Просьба не заливать файлы, защищенные авторскими правами, а также файлы нелегального содержания!
cron