Начать новую тему Ответить на тему
Статистика раздачи
Размер: 1.39 ГБ | Добавлен: 08 июн 2019, 08:56 | Скачали: 1
Сидеров: 0  [0 байт/сек]    Личеров: 0  [0 байт/сек]
Пред. тема | След. тема 

Автор
Сообщение

СообщениеДобавлено: 08 июн 2019, 08:56 

Ответить с цитатой 

Royal Liverpool Philharmonic Orchestra, Andrew Manze / Vaughan Williams - Symphonies Nos. 7 ‘Sinfonia Antartica’ & 9
Формат записи/Источник записи: [TR24][OF]
Наличие водяных знаков: Нет
Год издания/переиздания диска: 2019
Жанр: Classical
Издатель (лейбл): Onyx
Продолжительность: 01:23:33
Наличие сканов в содержимом раздачи: Буклет PDF
Треклист:
Vaughan Williams: Symphony No. 7 'Sinfonia antartica' 42:48
Rowan Pierce (soprano) & Timothy West (narrator), Ladies of the Royal Liverpool Philharmonic Choir
01. I. Prelude. Andante maestoso 11:06
02. II. Scherzo. Moderato 5:24
03. III. Landscape. Lento 10:57
04. IV. Intermezzo. Andante sostenuto 6:20
05. V. Epilogue. Alla Marcia, moderato (non troppo allegro) 9:01
Vaughan Williams: Symphony No. 9 in E minor 40:41
06. I. Moderato maestoso 10:55
07. II. Andante sostenuto 8:52
08. III. Scherzo 5:49
09. IV. Andante tranquillo 15:05
Royal Liverpool Philharmonic Orchestra
Andrew Manze
Контейнер: FLAC (*.flac)
Тип рипа: tracks
Разрядность: 24/96
Формат: PCM
Количество каналов: 2.0
Код:
foobar2000 1.4.3 / Dynamic Range Meter 1.1.1
log date: 2019-06-04 22:14:45
--------------------------------------------------------------------------------
Analyzed: Royal Liverpool Philharmonic Orchestra / Vaughan Williams: Sinfonia Antartica, Symphony No. 9
--------------------------------------------------------------------------------
DR         Peak         RMS     Duration Track
--------------------------------------------------------------------------------
DR13      -0.89 dB   -21.42 dB     11:06 01-Symphony No. 7 "Sinfonia Antartica": I. Prelude - Andante maestoso
DR13      -5.58 dB   -25.05 dB      5:24 02-Symphony No. 7 "Sinfonia Antartica": II. Scherzo moderato
DR13      -0.09 dB   -19.62 dB     10:58 03-Symphony No. 7 "Sinfonia Antartica": III. Landscape - Lento
DR15      -9.78 dB   -30.64 dB      6:20 04-Symphony No. 7 "Sinfonia Antartica": IV. Intermezzo - Andante sostenuto
DR12      -2.62 dB   -21.28 dB      9:02 05-Symphony No. 7 "Sinfonia Antartica": V. Epilogue - Alla marcia, moderato (non troppo allegro)
DR14      -1.85 dB   -21.31 dB     10:56 06-Symphony No. 9 in E Minor: I. Moderato maestoso
DR14      -3.19 dB   -23.46 dB      8:53 07-Symphony No. 9 in E Minor: II. Andante sostenuto
DR13      -3.53 dB   -22.41 dB      5:49 08-Symphony No. 9 in E Minor: III. Scherzo - Allegro pesante
DR14      -0.73 dB   -22.21 dB     15:05 09-Symphony No. 9 in E Minor: IV. Andante tranquillo
--------------------------------------------------------------------------------
Number of tracks:  9
Official DR value: DR14
Samplerate:        96000 Hz
Channels:          2
Bits per sample:   24
Bitrate:           2354 kbps
Codec:             FLAC
================================================================================
Источник (релизер): https://www.prestomusic.com/classical/products/8606829--vaughan-williams-symphoni...onia-antartica-9
Правила, инструкции, FAQ!!!
Торрент  Добавлен [08 июн 2019, 08:56] Скачать торрент Магнет ссылка
Скачать торрент
[ Размер 29.37 КБ / Просмотров 9 ]

Статус
Проверен 
 
Размер  1.39 ГБ
Приватный: Нет (DHT включён)
.torrent скачан  1
Как залить торрент? | Как скачать Torrent? | Ошибка в торренте? Качайте магнет  


     Отправить личное сообщение
   
Страница 1 из 1
Показать сообщения за:  Поле сортировки  
Начать новую тему Ответить на тему


Сейчас этот форум просматривают: нет зарегистрированных пользователей и гости: 0


Вы не можете начинать темы
Вы не можете отвечать на сообщения
Вы не можете редактировать свои сообщения
Вы не можете удалять свои сообщения
Вы не можете добавлять вложения

Перейти:  
Ресурс не предоставляет электронные версии произведений, а занимается лишь коллекционированием и каталогизацией ссылок, присылаемых и публикуемых на форуме нашими читателями. Если вы являетесь правообладателем какого-либо представленного материала и не желаете чтобы ссылка на него находилась в нашем каталоге, свяжитесь с нами и мы незамедлительно удалим её. Файлы для обмена на трекере предоставлены пользователями сайта, и администрация не несёт ответственности за их содержание. Просьба не заливать файлы, защищенные авторскими правами, а также файлы нелегального содержания!
cron