Начать новую тему Ответить на тему
Статистика раздачи
Размер: 1.28 ГБ | Добавлен: 10 июл 2019, 18:21 | Скачали: 2
Сидеров: 65  [0 байт/сек]    Личеров: 19  [0 байт/сек]
Пред. тема | След. тема 

Автор
Сообщение

СообщениеДобавлено: 10 июл 2019, 18:21 

Ответить с цитатой 

Кино ● Каталог Maschina Records
Жанр: Rock
Производитель CD: Россия
Год издания CD: 2018-2019
Издатель: Maschina Records
Аудиокодек: FLAC (*.flac)
Тип рипа: image+.cue
Битрейт аудио: lossless
Продолжительность: указана поальбомно
Источник: ley-barmaley / lossless-galaxy
Сканирование: full scans (JPG, 450 ~ 600 dpi)

1. Группа крови
2. Закрой за мной дверь, я ухожу
3. Война
4. Спокойная ночь
5. Мама, мы все сошли с ума
6. Бошетунмай
7. В наших глазах
8. Попробуй спеть вместе со мной
9. Прохожий
10. Дальше действовать будем мы
11. Легенда
Продолжительность: 0:48:01
Код:
Exact Audio Copy V1.0 beta 3 from 29. August 2011
Отчёт EAC об извлечении, выполненном 28. июня 2019, 22:50
Кино / Группа крови (MKK881CD1)
Дисковод: ASUS    DRW-1814BL   Adapter: 0  ID: 0
Режим чтения                 : Достоверность
Использование точного потока : Да
Отключение кэша аудио        : Да
Использование указателей C2  : Нет
Коррекция смещения при чтении                     : 6
Способность читать области Lead-in и Lead-out     : Нет
Заполнение пропущенных сэмплов тишиной            : Да
Удаление блоков с тишиной в начале и конце        : Нет
При вычислениях CRC использовались нулевые сэмплы : Да
Интерфейс                                         : Встроенный Win32-интерфейс для Win NT/2000
Выходной формат : Внутренние WAV-операции
Формат сэмплов  : 44.100 Гц; 16 бит; стерео
TOC извлечённого CD
     Трек |   Старт  | Длительность | Начальный сектор | Конечный сектор
    ---------------------------------------------------------------------
       1  |  0:00.00 |    4:48.17   |           0      |      21616
       2  |  4:48.17 |    4:21.01   |       21617      |      41192
       3  |  9:09.18 |    4:06.70   |       41193      |      59712
       4  | 13:16.13 |    6:16.04   |       59713      |      87916
       5  | 19:32.17 |    4:09.02   |       87917      |     106593
       6  | 23:41.19 |    4:12.39   |      106594      |     125532
       7  | 27:53.58 |    3:35.15   |      125533      |     141672
       8  | 31:28.73 |    4:38.19   |      141673      |     162541
       9  | 36:07.17 |    3:41.38   |      162542      |     179154
      10  | 39:48.55 |    3:59.02   |      179155      |     197081
      11  | 43:47.57 |    4:13.21   |      197082      |     216077
Характеристики диапазона извлечения и сообщения об ошибках
Выбранный диапазон
     Имя файла G:\ley-barmaley\lossless-galaxy.ru\Кино - Группа крови (MKK881CD1).wav
     Пиковый уровень 94.4 %
     Скорость извлечения 8.3 X
     Качество диапазона 100.0 %
     CRC теста 013194CB
     CRC копии 013194CB
     Копирование... OK
Ошибок не произошло
AccurateRip: сводка
Трек  1  отсутствует в базе данных
Трек  2  отсутствует в базе данных
Трек  3  отсутствует в базе данных
Трек  4  отсутствует в базе данных
Трек  5  отсутствует в базе данных
Трек  6  отсутствует в базе данных
Трек  7  отсутствует в базе данных
Трек  8  отсутствует в базе данных
Трек  9  отсутствует в базе данных
Трек 10  отсутствует в базе данных
Трек 11  отсутствует в базе данных
Ни одного трека нет в базе AccurateRip
Конец отчёта
---- CUETools DB Plugin V2.1.3
[CTDB TOCID: 1W3Tz2Gbsilgeus84FqnIwopwnc-] found, Submit result: 1W3Tz2Gbsilgeus84FqnIwopwnc- has been confirmed
[9944138f] (3/3) Accurately ripped
==== Контрольная сумма отчёта 25C6004D04D3E98CA51B18A222DF1D65B099C67FFD344DD3FDF95907606B3CA6 ====
#7771. Мы ждём перемен (оригинальная версия)
2. Мы ждём перемен (авторская версия)
Выступление на V фестивале Ленинградского рок-клуба 03 июня 1987 года
3. Вступление
4. Группа крови
5. Следи за собой
6. Война
7. Бошетунмай
8. В наших глазах
9. Мама, мы все тяжело больны
10. Легенда
11. Прохожий
Продолжительность: 0:42:15
Код:
Exact Audio Copy V1.0 beta 3 from 29. August 2011
Отчёт EAC об извлечении, выполненном 28. июня 2019, 23:25
Кино / Группа крови - Live `87 (MKK881CD2)
Дисковод: ASUS    DRW-1814BL   Adapter: 0  ID: 0
Режим чтения                 : Достоверность
Использование точного потока : Да
Отключение кэша аудио        : Да
Использование указателей C2  : Нет
Коррекция смещения при чтении                     : 6
Способность читать области Lead-in и Lead-out     : Нет
Заполнение пропущенных сэмплов тишиной            : Да
Удаление блоков с тишиной в начале и конце        : Нет
При вычислениях CRC использовались нулевые сэмплы : Да
Интерфейс                                         : Встроенный Win32-интерфейс для Win NT/2000
Выходной формат : Внутренние WAV-операции
Формат сэмплов  : 44.100 Гц; 16 бит; стерео
TOC извлечённого CD
     Трек |   Старт  | Длительность | Начальный сектор | Конечный сектор
    ---------------------------------------------------------------------
       1  |  0:00.00 |    5:13.42   |           0      |      23516
       2  |  5:13.42 |    5:14.30   |       23517      |      47096
       3  | 10:27.72 |    0:48.49   |       47097      |      50745
       4  | 11:16.46 |    4:16.57   |       50746      |      70002
       5  | 15:33.28 |    4:47.18   |       70003      |      91545
       6  | 20:20.46 |    4:24.58   |       91546      |     111403
       7  | 24:45.29 |    4:01.02   |      111404      |     129480
       8  | 28:46.31 |    3:12.19   |      129481      |     143899
       9  | 31:58.50 |    3:26.23   |      143900      |     159372
      10  | 35:24.73 |    3:34.73   |      159373      |     175495
      11  | 38:59.71 |    3:15.19   |      175496      |     190139
Характеристики диапазона извлечения и сообщения об ошибках
Выбранный диапазон
     Имя файла G:\ley-barmaley\lossless-galaxy.ru\Кино - Группа крови - Live `87 (MKK881CD2).wav
     Пиковый уровень 94.3 %
     Скорость извлечения 4.3 X
     Качество диапазона 100.0 %
     CRC теста F8FBE274
     CRC копии F8FBE274
     Копирование... OK
Ошибок не произошло
AccurateRip: сводка
Трек  1  отсутствует в базе данных
Трек  2  отсутствует в базе данных
Трек  3  отсутствует в базе данных
Трек  4  отсутствует в базе данных
Трек  5  отсутствует в базе данных
Трек  6  отсутствует в базе данных
Трек  7  отсутствует в базе данных
Трек  8  отсутствует в базе данных
Трек  9  отсутствует в базе данных
Трек 10  отсутствует в базе данных
Трек 11  отсутствует в базе данных
Ни одного трека нет в базе AccurateRip
Конец отчёта
---- CUETools DB Plugin V2.1.3
[CTDB TOCID: ObPbyqXTmLxfhhxYjGwf1QPZ9HA-] found, Submit result: ObPbyqXTmLxfhhxYjGwf1QPZ9HA- has been confirmed
[ce21b8cd] (3/3) Accurately ripped
==== Контрольная сумма отчёта 0AFC32E0FBE1177CFB62B5AA844448617E45B0DF5ECCFA9AEB0CDCFDFB16DC47 ====
#7771. Группа крови
2. Закрой за мной дверь, я ухожу
3. В наших глазах
4. Бошетунмай
5. Мама, мы все тяжело больны
6. Спокойная ночь
7. Попробуй спеть вместе со мной
8. Прохожий
9. Дальше действовать будем мы
10. Война
11. Легенда
Продолжительность: 0:47:09
Код:
Exact Audio Copy V1.0 beta 3 from 29. August 2011
Отчёт EAC об извлечении, выполненном 28. июня 2019, 23:55
Кино / Группа крови - Черновик (MKK881CD3)
Дисковод: ASUS    DRW-1814BL   Adapter: 0  ID: 0
Режим чтения                 : Достоверность
Использование точного потока : Да
Отключение кэша аудио        : Да
Использование указателей C2  : Нет
Коррекция смещения при чтении                     : 6
Способность читать области Lead-in и Lead-out     : Нет
Заполнение пропущенных сэмплов тишиной            : Да
Удаление блоков с тишиной в начале и конце        : Нет
При вычислениях CRC использовались нулевые сэмплы : Да
Интерфейс                                         : Встроенный Win32-интерфейс для Win NT/2000
Выходной формат : Внутренние WAV-операции
Формат сэмплов  : 44.100 Гц; 16 бит; стерео
TOC извлечённого CD
     Трек |   Старт  | Длительность | Начальный сектор | Конечный сектор
    ---------------------------------------------------------------------
       1  |  0:00.00 |    4:49.34   |           0      |      21708
       2  |  4:49.34 |    3:58.66   |       21709      |      39624
       3  |  8:48.25 |    3:38.39   |       39625      |      56013
       4  | 12:26.64 |    4:27.65   |       56014      |      76103
       5  | 16:54.54 |    4:10.70   |       76104      |      94923
       6  | 21:05.49 |    5:55.10   |       94924      |     121558
       7  | 27:00.59 |    4:36.40   |      121559      |     142298
       8  | 31:37.24 |    3:05.74   |      142299      |     156247
       9  | 34:43.23 |    4:04.61   |      156248      |     174608
      10  | 38:48.09 |    4:06.09   |      174609      |     193067
      11  | 42:54.18 |    4:15.02   |      193068      |     212194
Характеристики диапазона извлечения и сообщения об ошибках
Выбранный диапазон
     Имя файла G:\ley-barmaley\lossless-galaxy.ru\Кино - Группа крови - Черновик (MKK881CD3).wav
     Пиковый уровень 93.4 %
     Скорость извлечения 5.6 X
     Качество диапазона 99.9 %
     CRC теста 4B4B1B39
     CRC копии 4B4B1B39
     Копирование... OK
Ошибок не произошло
AccurateRip: сводка
Трек  1  отсутствует в базе данных
Трек  2  отсутствует в базе данных
Трек  3  отсутствует в базе данных
Трек  4  отсутствует в базе данных
Трек  5  отсутствует в базе данных
Трек  6  отсутствует в базе данных
Трек  7  отсутствует в базе данных
Трек  8  отсутствует в базе данных
Трек  9  отсутствует в базе данных
Трек 10  отсутствует в базе данных
Трек 11  отсутствует в базе данных
Ни одного трека нет в базе AccurateRip
Конец отчёта
---- CUETools DB Plugin V2.1.3
[CTDB TOCID: nC9zr5rin7UMtiGgZK1_t_UT_ag-] found, Submit result: nC9zr5rin7UMtiGgZK1_t_UT_ag- has been confirmed
[bdd7fb62] (3/3) Accurately ripped
==== Контрольная сумма отчёта CA198268CE9875ACA7E327DAD3ECEE247A825DBFC005594BE1F7B39C309A4590 ====
Код:
foobar2000 1.3.8 / Dynamic Range Meter 1.1.1
log date: 2019-06-29 08:38:12
--------------------------------------------------------------------------------
Analyzed: Кино / Группа крови (Maschina Records, MKK881CD1)
--------------------------------------------------------------------------------
DR         Peak         RMS     Duration Track
--------------------------------------------------------------------------------
DR11      -0.51 dB   -13.70 dB      4:48 01-Группа крови
DR12      -0.52 dB   -13.44 dB      4:21 02-Закрой за мной дверь, я ухожу
DR11      -1.64 dB   -14.51 dB      4:07 03-Война
DR11      -1.63 dB   -14.24 dB      6:16 04-Спокойная ночь
DR12      -0.51 dB   -13.57 dB      4:09 05-Мама, мы все сошли с ума
DR11      -0.50 dB   -12.55 dB      4:13 06-Бошетунмай
DR11      -0.52 dB   -13.39 dB      3:35 07-В наших глазах
DR11      -1.62 dB   -13.53 dB      4:38 08-Попробуй спеть вместе со мной
DR11      -0.51 dB   -12.62 dB      3:42 09-Прохожий
DR11      -0.50 dB   -12.49 dB      3:59 10-Дальше действовать будем мы
DR15      -0.51 dB   -17.74 dB      4:13 11-Легенда
--------------------------------------------------------------------------------
Number of tracks:  11
Official DR value: DR12
Samplerate:        44100 Hz
Channels:          2
Bits per sample:   16
Bitrate:           869 kbps
Codec:             FLAC
================================================================================[hr][/hr][hr][/hr]foobar2000 1.3.8 / Dynamic Range Meter 1.1.1
log date: 2019-06-29 08:38:42
--------------------------------------------------------------------------------
Analyzed: Кино / Группа крови - Live `87 (Maschina Records, MKK881CD2)
--------------------------------------------------------------------------------
DR         Peak         RMS     Duration Track
--------------------------------------------------------------------------------
DR11      -0.51 dB   -12.23 dB      5:14 01-Мы ждём перемен (оригинальная версия)
DR11      -0.51 dB   -12.34 dB      5:14 02-Мы ждём перемен (авторская версия)
DR15      -0.53 dB   -20.65 dB      0:49 03-Вступление (V фестиваль ЛРК `87)
DR12      -0.52 dB   -15.01 dB      4:17 04-Группа крови (V фестиваль ЛРК `87)
DR12      -0.51 dB   -13.68 dB      4:47 05-Следи за собой (V фестиваль ЛРК `87)
DR11      -0.55 dB   -14.83 dB      4:25 06-Война (V фестиваль ЛРК `87)
DR12      -0.51 dB   -13.30 dB      4:01 07-Бошетунмай (V фестиваль ЛРК `87)
DR11      -0.51 dB   -12.79 dB      3:12 08-В наших глазах (V фестиваль ЛРК `87)
DR11      -0.51 dB   -12.66 dB      3:26 09-Мама, мы все тяжело больны (V фестиваль ЛРК `87)
DR14      -4.27 dB   -21.19 dB      3:35 10-Легенда (V фестиваль ЛРК `87)
DR11      -0.51 dB   -13.09 dB      3:15 11-Прохожий (V фестиваль ЛРК `87)
--------------------------------------------------------------------------------
Number of tracks:  11
Official DR value: DR12
Samplerate:        44100 Hz
Channels:          2
Bits per sample:   16
Bitrate:           931 kbps
Codec:             FLAC
================================================================================[hr][/hr][hr][/hr]foobar2000 1.3.8 / Dynamic Range Meter 1.1.1
log date: 2019-06-29 08:39:15
--------------------------------------------------------------------------------
Analyzed: Кино / Группа крови - Черновик (Maschina Records, MKK881CD3)
--------------------------------------------------------------------------------
DR         Peak         RMS     Duration Track
--------------------------------------------------------------------------------
DR11      -1.20 dB   -14.58 dB      4:49 01-Группа крови (черновик)
DR11      -1.11 dB   -13.04 dB      3:59 02-Закрой за мной дверь, я ухожу (черновик)
DR11      -1.51 dB   -14.17 dB      3:39 03-В наших глазах (черновик)
DR11      -0.72 dB   -13.39 dB      4:28 04-Бошетунмай (черновик)
DR11      -0.58 dB   -13.72 dB      4:11 05-Мама, мы все тяжело больны (черновик)
DR12      -0.74 dB   -14.13 dB      5:55 06-Спокойная ночь (черновик)
DR11      -0.63 dB   -12.27 dB      4:37 07-Попробуй спеть вместе со мной (черновик)
DR11      -0.72 dB   -13.36 dB      3:06 08-Прохожий (черновик)
DR11      -1.09 dB   -13.36 dB      4:05 09-Дальше действовать будем мы (черновик)
DR11      -1.35 dB   -13.44 dB      4:06 10-Война (черновик)
DR17      -2.94 dB   -22.73 dB      4:15 11-Легенда (черновик)
--------------------------------------------------------------------------------
Number of tracks:  11
Official DR value: DR12
Samplerate:        44100 Hz
Channels:          2
Bits per sample:   16
Bitrate:           792 kbps
Codec:             FLAC
================================================================================
Код:
-----------------------
DON'T MODIFY THIS FILE
-----------------------
PERFORMER: auCDtect Task Manager, ver. 1.6.0 RC1 build 1.6.0.1
Copyright (c) 2008-2010 y-soft. All rights reserved
[url=http://y-soft.org]http://y-soft.org[/url]
ANALYZER: auCDtect: CD records authenticity detector, version 0.8.2
Copyright (c) 2004 Oleg Berngardt. All rights reserved.
Copyright (c) 2004 Alexander Djourik. All rights reserved.
FILE: Кино - Группа крови - Черновик (MKK881CD3).flac
  Size: 280048833 Hash: F291F38122BB01E39B76982FB301F4F0 Accuracy: -m0
  Conclusion: CDDA 100%
  Signature: 2C619056BF3CC98E551561EE58949C8F3D92C022
FILE: Кино - Группа крови - Live `87 (MKK881CD2).flac
  Size: 294986156 Hash: 2A664891B93341023EE3115F5F141D73 Accuracy: -m0
  Conclusion: CDDA 100%
  Signature: A261E959C935E69390C9B3A55ED03205D9781C1F
FILE: Кино - Группа крови (MKK881CD1).flac
  Size: 313135569 Hash: 78EA6BFD35A871DDEDAAF99D388B57BB Accuracy: -m0
  Conclusion: CDDA 100%
  Signature: 5BAFF7510F4FF5001CD0DE76560A56485E610DDC
FILE: Кино - Группа крови - Черновик (MKK881CD3).wav
  Size: 499082684 Hash: F291F38122BB01E39B76982FB301F4F0 Accuracy: -m0
  Conclusion: CDDA 100%
  Signature: F30F94DAA6F1B8FD27BD08ACC7E2898558016105
FILE: Кино - Группа крови - Live `87 (MKK881CD2).wav
  Size: 447209324 Hash: 2A664891B93341023EE3115F5F141D73 Accuracy: -m0
  Conclusion: CDDA 100%
  Signature: E5DB1716EBB603FDD9628BC2EDF7ECE12A0C89CF
FILE: Кино - Группа крови (MKK881CD1).wav
  Size: 508215500 Hash: 78EA6BFD35A871DDEDAAF99D388B57BB Accuracy: -m0
  Conclusion: CDDA 100%
  Signature: FA923741B02195941F0111B26AA32B1AABCDED2A
[img]https://a.radikal.ru/a00/1906/80/0f56d0dc92be.png[/img]
[img]https://d.radikal.ru/d04/1906/99/90bc3407acb4.png[/img]
[img]https://b.radikal.ru/b13/1906/e3/2ee6bba5ff0b.png[/img]

#7771. Мама, мы все тяжело больны
2. Троллейбус
3. Электричка (live)
4. Мама, мы все тяжело больны (live) + «скрытый трек»
Продолжительность: 0:14:56
Код:
Exact Audio Copy V1.0 beta 3 from 29. August 2011
Отчёт EAC об извлечении, выполненном 22. марта 2019, 16:25
Кино / Maman (MASHCD-021)
Дисковод: ASUS    DRW-1814BL   Adapter: 0  ID: 0
Режим чтения                 : Достоверность
Использование точного потока : Да
Отключение кэша аудио        : Да
Использование указателей C2  : Нет
Коррекция смещения при чтении                     : 6
Способность читать области Lead-in и Lead-out     : Нет
Заполнение пропущенных сэмплов тишиной            : Да
Удаление блоков с тишиной в начале и конце        : Нет
При вычислениях CRC использовались нулевые сэмплы : Да
Интерфейс                                         : Встроенный Win32-интерфейс для Win NT/2000
Выходной формат : Внутренние WAV-операции
Формат сэмплов  : 44.100 Гц; 16 бит; стерео
TOC извлечённого CD
     Трек |   Старт  | Длительность | Начальный сектор | Конечный сектор
    ---------------------------------------------------------------------
       1  |  0:00.00 |    3:50.69   |           0      |      17318
       2  |  3:50.69 |    2:57.12   |       17319      |      30605
       3  |  6:48.06 |    3:15.41   |       30606      |      45271
       4  | 10:03.47 |    4:52.24   |       45272      |      67195
Характеристики диапазона извлечения и сообщения об ошибках
Выбранный диапазон
     Имя файла G:\ley-barmaley\lossless-galaxy.ru\Кино - Maman (MASHCD-021).wav
     Пиковый уровень 92.2 %
     Скорость извлечения 3.6 X
     Качество диапазона 100.0 %
     CRC теста 2CF961E2
     CRC копии 2CF961E2
     Копирование... OK
Ошибок не произошло
AccurateRip: сводка
Трек  1  отсутствует в базе данных
Трек  2  отсутствует в базе данных
Трек  3  отсутствует в базе данных
Трек  4  отсутствует в базе данных
Ни одного трека нет в базе AccurateRip
Конец отчёта
---- CUETools DB Plugin V2.1.3
[CTDB TOCID: RfpyOeijB6fDuRMMbka6GGUCk2A-] disk not present in database, Submit result: RfpyOeijB6fDuRMMbka6GGUCk2A- has been uploaded
==== Контрольная сумма отчёта 8844B2017C4BABA406A3FAA66B112C0C938B29AB9215DAC01A515FED8D1038B9 ====
Код:
foobar2000 1.3.8 / Dynamic Range Meter 1.1.1
log date: 2019-03-22 16:57:29
--------------------------------------------------------------------------------
Analyzed: Кино / Maman (Maschina Records, MASHCD-021)
--------------------------------------------------------------------------------
DR         Peak         RMS     Duration Track
--------------------------------------------------------------------------------
DR9       -0.93 dB   -11.57 dB      3:51 01-Мама, мы все тяжело больны
DR10      -0.96 dB   -12.44 dB      2:57 02-Троллейбус
DR9       -2.43 dB   -14.30 dB      3:16 03-Электричка (live)
DR12      -0.70 dB   -15.29 dB      4:52 04-Мама, мы все тяжело больны (live)
--------------------------------------------------------------------------------
Number of tracks:  4
Official DR value: DR10
Samplerate:        44100 Hz
Channels:          2
Bits per sample:   16
Bitrate:           882 kbps
Codec:             FLAC
================================================================================
Код:
-----------------------
DON'T MODIFY THIS FILE
-----------------------
PERFORMER: auCDtect Task Manager, ver. 1.6.0 RC1 build 1.6.0.1
Copyright (c) 2008-2010 y-soft. All rights reserved
[url=http://y-soft.org]http://y-soft.org[/url]
ANALYZER: auCDtect: CD records authenticity detector, version 0.8.2
Copyright (c) 2004 Oleg Berngardt. All rights reserved.
Copyright (c) 2004 Alexander Djourik. All rights reserved.
FILE: Кино - Maman (MASHCD-021).flac
  Size: 98763877 Hash: 62FBF5F6CBC146286A0EE4A62A87BDE3 Accuracy: -m0
  Conclusion: CDDA 100%
  Signature: 52208AAF880BADD9B56B885E25EBB7052BDD8B94
FILE: Кино - Maman (MASHCD-021).wav
  Size: 158045036 Hash: 62FBF5F6CBC146286A0EE4A62A87BDE3 Accuracy: -m0
  Conclusion: CDDA 100%
  Signature: 3E63EEE08D0E3A554B36E2C8295628321BBA6895
[img]https://d.radikal.ru/d28/1903/c3/5148063f6c9b.png[/img]
#7771. Атаман (версия 2012 г.)
2. Атаман (версия 1990 г.)
3. Атаман (демо-версия 2012 г.)
Продолжительность: 0:11:29
Код:
Exact Audio Copy V1.0 beta 3 from 29. August 2011
Отчёт EAC об извлечении, выполненном 10. ноября 2018, 17:20
Кино / Атаман (MASHCD-019)
Дисковод: ASUS    DRW-1814BL   Adapter: 0  ID: 0
Режим чтения                 : Достоверность
Использование точного потока : Да
Отключение кэша аудио        : Да
Использование указателей C2  : Нет
Коррекция смещения при чтении                     : 6
Способность читать области Lead-in и Lead-out     : Нет
Заполнение пропущенных сэмплов тишиной            : Да
Удаление блоков с тишиной в начале и конце        : Нет
При вычислениях CRC использовались нулевые сэмплы : Да
Интерфейс                                         : Встроенный Win32-интерфейс для Win NT/2000
Выходной формат : Внутренние WAV-операции
Формат сэмплов  : 44.100 Гц; 16 бит; стерео
TOC извлечённого CD
     Трек |   Старт  | Длительность | Начальный сектор | Конечный сектор
    ---------------------------------------------------------------------
       1  |  0:00.00 |    4:12.21   |           0      |      18920
       2  |  4:12.21 |    3:00.01   |       18921      |      32421
       3  |  7:12.22 |    4:16.28   |       32422      |      51649
Характеристики диапазона извлечения и сообщения об ошибках
Выбранный диапазон
     Имя файла G:\ley-barmaley\lossless-galaxy.ru\Кино - Атаман (MASHCD-019).wav
     Пиковый уровень 96.3 %
     Скорость извлечения 6.5 X
     Качество диапазона 100.0 %
     CRC теста AAD76A5E
     CRC копии AAD76A5E
     Копирование... OK
Ошибок не произошло
AccurateRip: сводка
Трек  1  отсутствует в базе данных
Трек  2  отсутствует в базе данных
Трек  3  отсутствует в базе данных
Ни одного трека нет в базе AccurateRip
Конец отчёта
---- CUETools DB Plugin V2.1.3
[CTDB TOCID: qiUPETku03f0cmUPXkp.EF0Gk4o-] found, Submit result: qiUPETku03f0cmUPXkp.EF0Gk4o- has been confirmed
[a75a7f4b] (2/2) Accurately ripped
==== Контрольная сумма отчёта AB8FC6F5F0A51AEA175FC06B5BF6CCC9DEC6547C4CD5EC12810CB9AFDBDB88CB ====
Код:
foobar2000 1.3.8 / Dynamic Range Meter 1.1.1
log date: 2018-11-10 17:26:55
--------------------------------------------------------------------------------
Analyzed: Кино / Атаман (Maschina Records, MASHCD-019)
--------------------------------------------------------------------------------
DR         Peak         RMS     Duration Track
--------------------------------------------------------------------------------
DR11      -0.32 dB   -12.05 dB      4:12 01-Атаман (версия 2012 г.)
DR9       -2.37 dB   -12.76 dB      4:16 03-Атаман (демо-версия 2012 г.)
--------------------------------------------------------------------------------
Number of tracks:  2
Official DR value: DR10
Samplerate:        44100 Hz
Channels:          2
Bits per sample:   16
Bitrate:           826 kbps
Codec:             FLAC
================================================================================
foobar2000 1.3.8 / Dynamic Range Meter 1.1.1
log date: 2018-11-10 17:26:52
--------------------------------------------------------------------------------
Statistics for: 02-Атаман (версия 1990 г.)
Number of samples: 7938588
Duration: 3:00
--------------------------------------------------------------------------------
                 Left              Right
Peak Value:     -0.99 dB   ---     -1.27 dB
Avg RMS:       -15.05 dB   ---    -15.04 dB
DR channel:     12.23 dB   ---     12.15 dB
--------------------------------------------------------------------------------
Official DR Value: DR12
Samplerate:        44100 Hz
Channels:          2
Bits per sample:   16
Bitrate:           826 kbps
Codec:             FLAC
================================================================================
Код:
-----------------------
DON'T MODIFY THIS FILE
-----------------------
PERFORMER: auCDtect Task Manager, ver. 1.6.0 RC1 build 1.6.0.1
Copyright (c) 2008-2010 y-soft. All rights reserved
[url=http://y-soft.org]http://y-soft.org[/url]
ANALYZER: auCDtect: CD records authenticity detector, version 0.8.2
Copyright (c) 2004 Oleg Berngardt. All rights reserved.
Copyright (c) 2004 Alexander Djourik. All rights reserved.
FILE: Кино - Атаман (MASHCD-019).flac
  Size: 71127004 Hash: BBBCE894AEC778CE2AFF590D4E53F98C Accuracy: -m0
  Conclusion: CDDA 100%
  Signature: DF3BE35306246D9577B6BE22087E3BAFB71CE2A8
FILE: Кино - Атаман (MASHCD-019).wav
  Size: 121480844 Hash: BBBCE894AEC778CE2AFF590D4E53F98C Accuracy: -m0
  Conclusion: CDDA 100%
  Signature: 7476EA7149B63BD60C4900F5927B0F6FEB9C02AA
[img]https://c.radikal.ru/c08/1811/17/aee4575993ee.png[/img]


Анонсы от Максима Кондрашова (aka: Dj Special, Max-Pulemet, maxdeja_vu)
Анонс альбома «Группа крови»
Реставрация альбома «Группа крови»


Правила, инструкции, FAQ!!!
Торрент  Добавлен [10 июл 2019, 18:21] Скачать торрент Магнет ссылка
Скачать торрент
[ Размер 24.32 КБ / Просмотров 17 ]

Статус
Проверен 
 
Размер  1.28 ГБ
Приватный: Нет (DHT включён)
.torrent скачан  2
Как залить торрент? | Как скачать Torrent? | Ошибка в торренте? Качайте магнет  


     Отправить личное сообщение
   
Страница 1 из 1
Показать сообщения за:  Поле сортировки  
Начать новую тему Ответить на тему


Сейчас этот форум просматривают: нет зарегистрированных пользователей и гости: 0


Вы не можете начинать темы
Вы не можете отвечать на сообщения
Вы не можете редактировать свои сообщения
Вы не можете удалять свои сообщения
Вы не можете добавлять вложения

Перейти:  
Ресурс не предоставляет электронные версии произведений, а занимается лишь коллекционированием и каталогизацией ссылок, присылаемых и публикуемых на форуме нашими читателями. Если вы являетесь правообладателем какого-либо представленного материала и не желаете чтобы ссылка на него находилась в нашем каталоге, свяжитесь с нами и мы незамедлительно удалим её. Файлы для обмена на трекере предоставлены пользователями сайта, и администрация не несёт ответственности за их содержание. Просьба не заливать файлы, защищенные авторскими правами, а также файлы нелегального содержания!
cron