Начать новую тему Ответить на тему
Статистика раздачи
Размер: 517.44 МБ | Добавлен: 11 июл 2019, 11:01 | Скачали: 0
Сидеров: 24  [0 байт/сек]    Личеров: 6  [0 байт/сек]
Пред. тема | След. тема 

Автор
Сообщение

СообщениеДобавлено: 11 июл 2019, 11:01 

Ответить с цитатой 

Heavy Sugar Second Spoonful: More Pure Essence Of New Orleans R&B (1954-1960)


Жанр: Rhythm & Blues, Soul, Funk
Носитель: CD
Страна-производитель диска (релиза): UK
Год издания: 2011
Издатель (лейбл): Fantastic Voyage
Номер по каталогу: FVTD131
Страна исполнителя (группы): USA
Аудиокодек: FLAC (*.flac)
Тип рипа: tracks+.cue
Продолжительность: 02:57:48
Источник: Сеть
Наличие сканов в содержимом раздачи: да
1. Little Richard - The Girl Can't Help It (soundtrack version)
2. Huey "Piano" Smith & His Clowns - Beatnik Blues
3. Frankie Ford - You Talk Too Much
4. Larry Birdsong - I'm Pleading Just for You
5. Lee Allen - Cat Walk
6. Roland Stone - Preacher s Daughter
7. Jo-Ann Campbell - Funny Thing
8. Bobby Charles - Why Can't You
9. Jimmy Beasley - She's Good To Me
10. Charles Brown - It's A Sin To Tell A Lie
11. Alonzo Stewart - I Get The Blues When It Rains
12. James "Sugar Boy" Crawford - Morning Star
13. Willie West - A Man Like Me
14. Fats Domino - Tell Me That You Love Me
15. Johnny Fuller - Sister Jenny
16. Lester Williams - McDonald's Daughter
17. Smiley Lewis - I Shall Not Be Moved
18. Chris Kenner - You Can't Beat Uncle Sam
19. Clarence "Frogman" Henry - I'm In Love
20. Bobby Marchan & The Tick Tocks - Snoopin' And Accusin'
21. Bobby Lonero - Little Bit
22. Earl King - Funny Face
23. Benny Spellman - Ammerette
24. Tommy Ridgley - Jam Up
25. The Hawks - School Girl
1. Jimmy Beasley - Little Coquette
2. Amos Milburn - Shake Shake
3. Eddie Bo - We Like Mambo
4. The Spiders with Chuck Carbo - Honey Bee
5. Little Richard - All Night Long
6. Billy Tate - Single Life
7. Fats Domino - Don't You Know I Love You
8. Paul Marvin - Hurry Up
9. Professor Longhair - Baby, Let Me Hold Your Hand
10. The Upsetters - Jaywalking
11. Huey Smith & His Clowns - Just A Lonely Clown
12. Dee Clark & The Original Little Richard Band - Oh Little Girl
13. Jessie Hill - Scoop Scoobie Doobie
14. Johnny Love & His Orchestra - Chills And Fever
15. Frankie Ford - The Groom
16. Roy Brown - Good Rocking Tonight
17. Smiley Lewis - Lil Liza Jane
18. Lenny Capello & The Dots - Tootles
19. Ernie K-Doe - Make You Love Me
20. Matthew Jacobs - Loaded Down
21. Collay & The Satellites - Little Girl Next Door
22. Irma Thomas - A Good Man
23. James "Sugar Boy" Crawford - She's Gotta Wobble When She Walks
24. Paul Gayten & Orchestra - Mule Face
25. Li'l Millet - Rock Around The Clock
1. Al Reed - Top Notch Grade A
2. Fats Domino - When I See You
3. Chris Kenner - Don't Make No Noise
4. Professor Longhair - Go To The Mardi Gras
5. Bobby Marchan - Quit My Job
6. Jessie Hill - High Head Blues
7. James "Sugar Boy" Crawford - You Gave Me Love
8. Jimmy Beasley - Good Lovin'
9. The Monitors - Candy Coated Kisses
10. Billy Tircuit - Crazy Green Lizard
11. Wynona Carr - I'm Mad At You
12. Arthur & Booker - You're Near Me
13. Smiley Lewis - Can't Stop Loving You
14. Huey Piano Smith & His Clowns - For Cryin Out Loud
15. Al Tousan - Chico
16. Eddie Bo - Every Dog Got Its Day
17. Calvin Spears - Baby Come On Home
18. Clarence Henry - Just My Baby And Me
19. Big Boy Myles - She's So Fine
20. Paul Gayten - Tickle Toe
21. Frankie Ford - Watchdog
22. Aaron Neville - Get Out Of My Life
23. Little Richard - Can't Believe You Wanna Leave
24. Professor Longhair - If I Only Knew
25. Al Johnson - Carnival Time
Код:
Exact Audio Copy V1.2 from 12. August 2016
EAC extraction logfile from 7. October 2016, 9:05
Various Artists / Heavy Sugar Second Spoonful: More Pure Essence Of New Orleans R&B (Disc 1)
Used drive : TSSTcorpCDDVDW SH-224BB Adapter: 1 ID: 0
Read mode : Secure
Utilize accurate stream : Yes
Defeat audio cache : Yes
Make use of C2 pointers : No
Read offset correction : 6
Overread into Lead-In and Lead-Out : No
Fill up missing offset samples with silence : Yes
Delete leading and trailing silent blocks : No
Null samples used in CRC calculations : Yes
Used interface : Native Win32 interface for Win NT & 2000
Gap handling : Appended to previous track
Used output format : User Defined Encoder
Selected bitrate : 768 kBit/s
Quality : High
Add ID3 tag : No
Command line compressor : C:\Program Files (x86)\Exact Audio Copy\Flac\flac.exe
Additional command line options : -8 -V -T "ARTIST=%artist%" -T "TITLE=%title%" -T "ALBUM=%albumtitle%" -T "DATE=%year%" -T "TRACKNUMBER=%tracknr%" -T "TOTALTRACKS=%numtracks%" -T "GENRE=%genre%" -T "ALBUMARTIST=%albumartist%" -T "ALBUM ARTIST=%albumartist%" -T "COMMENT=EAC Secure Mode, Test & Copy, AccurateRip, FLAC -8" %source%
TOC of the extracted CD
Track | Start | Length | Start sector | End sector
––––––––––––––––––––––––––––-
1 | 0:00.00 | 2:29.28 | 0 | 11202
2 | 2:29.28 | 2:21.50 | 11203 | 21827
3 | 4:51.03 | 2:35.14 | 21828 | 33466
4 | 7:26.17 | 2:45.02 | 33467 | 45843
5 | 10:11.19 | 2:16.01 | 45844 | 56044
6 | 12:27.20 | 2:28.65 | 56045 | 67209
7 | 14:56.10 | 1:59.42 | 67210 | 76176
8 | 16:55.52 | 2:33.73 | 76177 | 87724
9 | 19:29.50 | 2:04.52 | 87725 | 97076
10 | 21:34.27 | 2:36.27 | 97077 | 108803
11 | 24:10.54 | 2:04.12 | 108804 | 118115
12 | 26:14.66 | 2:16.17 | 118116 | 128332
13 | 28:31.08 | 2:21.53 | 128333 | 138960
14 | 30:52.61 | 2:05.28 | 138961 | 148363
15 | 32:58.14 | 2:36.06 | 148364 | 160069
16 | 35:34.20 | 2:05.20 | 160070 | 169464
17 | 37:39.40 | 2:04.54 | 169465 | 178818
18 | 39:44.19 | 2:30.56 | 178819 | 190124
19 | 42:15.00 | 2:31.19 | 190125 | 201468
20 | 44:46.19 | 2:10.27 | 201469 | 211245
21 | 46:56.46 | 2:19.69 | 211246 | 221739
22 | 49:16.40 | 2:07.15 | 221740 | 231279
23 | 51:23.55 | 2:38.29 | 231280 | 243158
24 | 54:02.09 | 2:49.13 | 243159 | 255846
25 | 56:51.22 | 2:11.38 | 255847 | 265709
Track 1
Filename C:\Rips\Various Artists - Heavy Sugar Second Spoonful More Pure Essence Of New Orleans R&B (2010) [FLAC]\CD1\01 - Little Richard - The Girl Can't Help It (soundtrack version).wav
Pre-gap length 0:00:02.00
Peak level 100.0 %
Extraction speed 1.3 X
Track quality 99.9 %
Test CRC 95147C92
Copy CRC 95147C92
Accurately ripped (confidence 4) [C59E8BBB] (AR v2)
Copy OK
Track 2
Filename C:\Rips\Various Artists - Heavy Sugar Second Spoonful More Pure Essence Of New Orleans R&B (2010) [FLAC]\CD1\02 - Huey 'Piano' Smith & His Clowns - Beatnik Blues.wav
Pre-gap length 0:00:03.66
Peak level 80.5 %
Extraction speed 1.6 X
Track quality 100.0 %
Test CRC 665437F5
Copy CRC 665437F5
Accurately ripped (confidence 4) [947586A5] (AR v2)
Copy OK
Track 3
Filename C:\Rips\Various Artists - Heavy Sugar Second Spoonful More Pure Essence Of New Orleans R&B (2010) [FLAC]\CD1\03 - Frankie Ford - You Talk Too Much.wav
Pre-gap length 0:00:03.53
Peak level 74.0 %
Extraction speed 1.7 X
Track quality 100.0 %
Test CRC AD66EB97
Copy CRC AD66EB97
Accurately ripped (confidence 4) [1E7E68E3] (AR v2)
Copy OK
Track 4
Filename C:\Rips\Various Artists - Heavy Sugar Second Spoonful More Pure Essence Of New Orleans R&B (2010) [FLAC]\CD1\04 - Larry Birdsong - I'm Pleading Just For You.wav
Pre-gap length 0:00:03.60
Peak level 74.1 %
Extraction speed 1.5 X
Track quality 99.9 %
Test CRC 017715AD
Copy CRC 017715AD
Accurately ripped (confidence 4) [3949F967] (AR v2)
Copy OK
Track 5
Filename C:\Rips\Various Artists - Heavy Sugar Second Spoonful More Pure Essence Of New Orleans R&B (2010) [FLAC]\CD1\05 - Lee Allen - Cat Walk.wav
Pre-gap length 0:00:04.59
Peak level 92.7 %
Extraction speed 1.9 X
Track quality 100.0 %
Test CRC 668D9B95
Copy CRC 668D9B95
Accurately ripped (confidence 4) [C3A53B36] (AR v2)
Copy OK
Track 6
Filename C:\Rips\Various Artists - Heavy Sugar Second Spoonful More Pure Essence Of New Orleans R&B (2010) [FLAC]\CD1\06 - Roland Stone - Preacher's Daughter.wav
Pre-gap length 0:00:04.74
Peak level 100.0 %
Extraction speed 2.0 X
Track quality 100.0 %
Test CRC B4DF4E04
Copy CRC B4DF4E04
Accurately ripped (confidence 4) [328D680E] (AR v2)
Copy OK
Track 7
Filename C:\Rips\Various Artists - Heavy Sugar Second Spoonful More Pure Essence Of New Orleans R&B (2010) [FLAC]\CD1\07 - Jo-Ann Campbell - Funny Thing.wav
Pre-gap length 0:00:04.56
Peak level 93.0 %
Extraction speed 2.0 X
Track quality 100.0 %
Test CRC AD4165AE
Copy CRC AD4165AE
Accurately ripped (confidence 4) [C881E429] (AR v2)
Copy OK
Track 8
Filename C:\Rips\Various Artists - Heavy Sugar Second Spoonful More Pure Essence Of New Orleans R&B (2010) [FLAC]\CD1\08 - Bobby Charles - Why Can't You.wav
Pre-gap length 0:00:05.05
Peak level 91.1 %
Extraction speed 2.2 X
Track quality 100.0 %
Test CRC F4BB579C
Copy CRC F4BB579C
Accurately ripped (confidence 4) [2FD0B227] (AR v2)
Copy OK
Track 9
Filename C:\Rips\Various Artists - Heavy Sugar Second Spoonful More Pure Essence Of New Orleans R&B (2010) [FLAC]\CD1\09 - Jimmy Beasley - She's Good To Me.wav
Pre-gap length 0:00:04.67
Peak level 70.5 %
Extraction speed 2.1 X
Track quality 100.0 %
Test CRC E8BFAF4B
Copy CRC E8BFAF4B
Accurately ripped (confidence 4) [019559FB] (AR v2)
Copy OK
Track 10
Filename C:\Rips\Various Artists - Heavy Sugar Second Spoonful More Pure Essence Of New Orleans R&B (2010) [FLAC]\CD1\10 - Charles Brown - It's A Sin To Tell A Lie.wav
Pre-gap length 0:00:04.43
Peak level 100.0 %
Extraction speed 1.8 X
Track quality 99.9 %
Test CRC 8BEC2CA4
Copy CRC 8BEC2CA4
Accurately ripped (confidence 4) [C954155F] (AR v2)
Copy OK
Track 11
Filename C:\Rips\Various Artists - Heavy Sugar Second Spoonful More Pure Essence Of New Orleans R&B (2010) [FLAC]\CD1\11 - Alonzo Stewart - I Get The Blues When It Rains.wav
Pre-gap length 0:00:04.15
Peak level 100.0 %
Extraction speed 1.6 X
Track quality 99.9 %
Test CRC 72B7173D
Copy CRC 72B7173D
Accurately ripped (confidence 4) [4554A54F] (AR v2)
Copy OK
Track 12
Filename C:\Rips\Various Artists - Heavy Sugar Second Spoonful More Pure Essence Of New Orleans R&B (2010) [FLAC]\CD1\12 - James 'Sugar Boy' Crawford - Morning Star.wav
Pre-gap length 0:00:05.06
Peak level 96.3 %
Extraction speed 2.4 X
Track quality 100.0 %
Test CRC 4D671A26
Copy CRC 4D671A26
Accurately ripped (confidence 4) [2BE68D62] (AR v2)
Copy OK
Track 13
Filename C:\Rips\Various Artists - Heavy Sugar Second Spoonful More Pure Essence Of New Orleans R&B (2010) [FLAC]\CD1\13 - Willie West - A Man Like Me.wav
Pre-gap length 0:00:04.71
Peak level 69.9 %
Extraction speed 2.5 X
Track quality 100.0 %
Test CRC B22786AE
Copy CRC B22786AE
Accurately ripped (confidence 4) [9B997A9D] (AR v2)
Copy OK
Track 14
Filename C:\Rips\Various Artists - Heavy Sugar Second Spoonful More Pure Essence Of New Orleans R&B (2010) [FLAC]\CD1\14 - Fats Domino - Tell Me That You Love Me.wav
Pre-gap length 0:00:02.56
Peak level 76.5 %
Extraction speed 2.5 X
Track quality 100.0 %
Test CRC 8E50E99D
Copy CRC 8E50E99D
Accurately ripped (confidence 4) [AE8CFAD6] (AR v2)
Copy OK
Track 15
Filename C:\Rips\Various Artists - Heavy Sugar Second Spoonful More Pure Essence Of New Orleans R&B (2010) [FLAC]\CD1\15 - Johnny Fuller - Sister Jenny.wav
Pre-gap length 0:00:04.13
Peak level 89.8 %
Extraction speed 2.7 X
Track quality 100.0 %
Test CRC 27F915F6
Copy CRC 27F915F6
Accurately ripped (confidence 4) [D5DDA056] (AR v2)
Copy OK
Track 16
Filename C:\Rips\Various Artists - Heavy Sugar Second Spoonful More Pure Essence Of New Orleans R&B (2010) [FLAC]\CD1\16 - Lester Williams - McDonald's Daughter.wav
Pre-gap length 0:00:04.51
Peak level 97.1 %
Extraction speed 2.6 X
Track quality 100.0 %
Test CRC 5D1E643B
Copy CRC 5D1E643B
Accurately ripped (confidence 4) [D363A8BB] (AR v2)
Copy OK
Track 17
Filename C:\Rips\Various Artists - Heavy Sugar Second Spoonful More Pure Essence Of New Orleans R&B (2010) [FLAC]\CD1\17 - Smiley Lewis - I Shall Not Be Moved.wav
Pre-gap length 0:00:05.61
Peak level 91.4 %
Extraction speed 2.6 X
Track quality 100.0 %
Test CRC 86BE9051
Copy CRC 86BE9051
Accurately ripped (confidence 4) [02017392] (AR v2)
Copy OK
Track 18
Filename C:\Rips\Various Artists - Heavy Sugar Second Spoonful More Pure Essence Of New Orleans R&B (2010) [FLAC]\CD1\18 - Chris Kenner - You Can't Beat Uncle Sam.wav
Pre-gap length 0:00:04.36
Peak level 89.6 %
Extraction speed 2.0 X
Track quality 99.9 %
Test CRC EA810F17
Copy CRC EA810F17
Accurately ripped (confidence 4) [2B15858F] (AR v2)
Copy OK
Track 19
Filename C:\Rips\Various Artists - Heavy Sugar Second Spoonful More Pure Essence Of New Orleans R&B (2010) [FLAC]\CD1\19 - Clarence 'Frogman' Henry - I'm In Love.wav
Pre-gap length 0:00:05.56
Peak level 85.1 %
Extraction speed 2.9 X
Track quality 100.0 %
Test CRC 71C3898B
Copy CRC 71C3898B
Accurately ripped (confidence 4) [E3F0607F] (AR v2)
Copy OK
Track 20
Filename C:\Rips\Various Artists - Heavy Sugar Second Spoonful More Pure Essence Of New Orleans R&B (2010) [FLAC]\CD1\20 - Bobby Marchan & The Tick Tocks - Snoopin' And Accusin'.wav
Pre-gap length 0:00:04.26
Peak level 92.5 %
Extraction speed 2.8 X
Track quality 100.0 %
Test CRC C88D1046
Copy CRC C88D1046
Accurately ripped (confidence 4) [07BD919C] (AR v2)
Copy OK
Track 21
Filename C:\Rips\Various Artists - Heavy Sugar Second Spoonful More Pure Essence Of New Orleans R&B (2010) [FLAC]\CD1\21 - Bobby Lonero - Little Bit.wav
Pre-gap length 0:00:04.36
Peak level 100.0 %
Extraction speed 2.9 X
Track quality 100.0 %
Test CRC 1489ACD6
Copy CRC 1489ACD6
Accurately ripped (confidence 4) [48E1A51A] (AR v2)
Copy OK
Track 22
Filename C:\Rips\Various Artists - Heavy Sugar Second Spoonful More Pure Essence Of New Orleans R&B (2010) [FLAC]\CD1\22 - Earl King - Funny Face.wav
Pre-gap length 0:00:04.06
Peak level 95.4 %
Extraction speed 2.9 X
Track quality 100.0 %
Test CRC 2A7C1D83
Copy CRC 2A7C1D83
Accurately ripped (confidence 4) [AC6F527F] (AR v2)
Copy OK
Track 23
Filename C:\Rips\Various Artists - Heavy Sugar Second Spoonful More Pure Essence Of New Orleans R&B (2010) [FLAC]\CD1\23 - Benny Spellman - Ammerette.wav
Pre-gap length 0:00:04.51
Peak level 100.0 %
Extraction speed 2.1 X
Track quality 99.9 %
Test CRC 16A6B0C3
Copy CRC 16A6B0C3
Accurately ripped (confidence 4) [067A8316] (AR v2)
Copy OK
Track 24
Filename C:\Rips\Various Artists - Heavy Sugar Second Spoonful More Pure Essence Of New Orleans R&B (2010) [FLAC]\CD1\24 - Tommy Ridgley - Jam Up.wav
Pre-gap length 0:00:04.67
Peak level 100.0 %
Extraction speed 3.2 X
Track quality 100.0 %
Test CRC 213C030B
Copy CRC 213C030B
Accurately ripped (confidence 4) [F845FD0D] (AR v2)
Copy OK
Track 25
Filename C:\Rips\Various Artists - Heavy Sugar Second Spoonful More Pure Essence Of New Orleans R&B (2010) [FLAC]\CD1\25 - The Hawks - School Girl.wav
Pre-gap length 0:00:04.58
Peak level 100.0 %
Extraction speed 1.9 X
Track quality 99.9 %
Test CRC 5EA83E82
Copy CRC 5EA83E82
Accurately ripped (confidence 4) [AA969164] (AR v2)
Copy OK
All tracks accurately ripped
No errors occurred
End of status report
–– CUETools DB Plugin V2.1.6
[CTDB TOCID: Hfk5NtZW6a_nMaELBnRFo28sDWw-] disk not present in database
Submit result: Hfk5NtZW6a_nMaELBnRFo28sDWw- has been uploaded
==== Log checksum 913A46D01BA2200E706B2E742D01493C1651FCC5CBBFB7519A446D47A2041B93 ====
Код:
Exact Audio Copy V1.2 from 12. August 2016
EAC extraction logfile from 7. October 2016, 9:40
Various Artists / Heavy Sugar Second Spoonful: More Pure Essence Of New Orleans R&B (Disc 2)
Used drive : TSSTcorpCDDVDW SH-224BB Adapter: 1 ID: 0
Read mode : Secure
Utilize accurate stream : Yes
Defeat audio cache : Yes
Make use of C2 pointers : No
Read offset correction : 6
Overread into Lead-In and Lead-Out : No
Fill up missing offset samples with silence : Yes
Delete leading and trailing silent blocks : No
Null samples used in CRC calculations : Yes
Used interface : Native Win32 interface for Win NT & 2000
Gap handling : Appended to previous track
Used output format : User Defined Encoder
Selected bitrate : 768 kBit/s
Quality : High
Add ID3 tag : No
Command line compressor : C:\Program Files (x86)\Exact Audio Copy\Flac\flac.exe
Additional command line options : -8 -V -T "ARTIST=%artist%" -T "TITLE=%title%" -T "ALBUM=%albumtitle%" -T "DATE=%year%" -T "TRACKNUMBER=%tracknr%" -T "TOTALTRACKS=%numtracks%" -T "GENRE=%genre%" -T "ALBUMARTIST=%albumartist%" -T "ALBUM ARTIST=%albumartist%" -T "COMMENT=EAC Secure Mode, Test & Copy, AccurateRip, FLAC -8" %source%
TOC of the extracted CD
Track | Start | Length | Start sector | End sector
––––––––––––––––––––––––––––-
1 | 0:00.00 | 2:16.14 | 0 | 10213
2 | 2:16.14 | 2:00.58 | 10214 | 19271
3 | 4:16.72 | 2:30.73 | 19272 | 30594
4 | 6:47.70 | 2:02.36 | 30595 | 39780
5 | 8:50.31 | 2:16.47 | 39781 | 50027
6 | 11:07.03 | 2:16.73 | 50028 | 60300
7 | 13:24.01 | 2:13.36 | 60301 | 70311
8 | 15:37.37 | 2:23.34 | 70312 | 81070
9 | 18:00.71 | 2:17.06 | 81071 | 91351
10 | 20:18.02 | 2:32.14 | 91352 | 102765
11 | 22:50.16 | 2:13.74 | 102766 | 112814
12 | 25:04.15 | 2:42.59 | 112815 | 125023
13 | 27:46.74 | 2:56.25 | 125024 | 138248
14 | 30:43.24 | 2:30.59 | 138249 | 149557
15 | 33:14.08 | 1:49.56 | 149558 | 157788
16 | 35:03.64 | 3:01.21 | 157789 | 171384
17 | 38:05.10 | 2:14.12 | 171385 | 181446
18 | 40:19.22 | 2:16.24 | 181447 | 191670
19 | 42:35.46 | 2:22.29 | 191671 | 202349
20 | 44:58.00 | 2:05.55 | 202350 | 211779
21 | 47:03.55 | 1:59.60 | 211780 | 220764
22 | 49:03.40 | 2:20.64 | 220765 | 231328
23 | 51:24.29 | 2:06.72 | 231329 | 240850
24 | 53:31.26 | 2:14.09 | 240851 | 250909
25 | 55:45.35 | 2:03.00 | 250910 | 260134
Track 1
Filename C:\Rips\Various Artists - Heavy Sugar Second Spoonful More Pure Essence Of New Orleans R&B (2010) [FLAC]\CD2\01 - Jimmy Beasley - Little Coquette.wav
Pre-gap length 0:00:02.00
Peak level 65.3 %
Extraction speed 3.6 X
Track quality 100.0 %
Test CRC 34B13E31
Copy CRC 34B13E31
Accurately ripped (confidence 4) [6FD9EF18] (AR v2)
Copy OK
Track 2
Filename C:\Rips\Various Artists - Heavy Sugar Second Spoonful More Pure Essence Of New Orleans R&B (2010) [FLAC]\CD2\02 - Amos Milburn - Shake Shake.wav
Pre-gap length 0:00:03.67
Peak level 82.1 %
Extraction speed 3.7 X
Track quality 100.0 %
Test CRC 725954B2
Copy CRC 725954B2
Accurately ripped (confidence 4) [2563FA5D] (AR v2)
Copy OK
Track 3
Filename C:\Rips\Various Artists - Heavy Sugar Second Spoonful More Pure Essence Of New Orleans R&B (2010) [FLAC]\CD2\03 - Eddie Bo - We Like Mambo.wav
Pre-gap length 0:00:04.07
Peak level 92.7 %
Extraction speed 4.1 X
Track quality 100.0 %
Test CRC 3CEEBDE2
Copy CRC 3CEEBDE2
Accurately ripped (confidence 4) [7D64AF56] (AR v2)
Copy OK
Track 4
Filename C:\Rips\Various Artists - Heavy Sugar Second Spoonful More Pure Essence Of New Orleans R&B (2010) [FLAC]\CD2\04 - The Spiders with Chuck Carbo - Honey Bee.wav
Pre-gap length 0:00:02.69
Peak level 90.9 %
Extraction speed 2.9 X
Track quality 99.9 %
Test CRC 433E98DA
Copy CRC 433E98DA
Accurately ripped (confidence 4) [2E13CDEE] (AR v2)
Copy OK
Track 5
Filename C:\Rips\Various Artists - Heavy Sugar Second Spoonful More Pure Essence Of New Orleans R&B (2010) [FLAC]\CD2\05 - Little Richard - All Night Long.wav
Pre-gap length 0:00:02.67
Peak level 94.3 %
Extraction speed 4.4 X
Track quality 100.0 %
Test CRC 8D5D10F5
Copy CRC 8D5D10F5
Accurately ripped (confidence 4) [8667F608] (AR v2)
Copy OK
Track 6
Filename C:\Rips\Various Artists - Heavy Sugar Second Spoonful More Pure Essence Of New Orleans R&B (2010) [FLAC]\CD2\06 - Billy Tate - Single Life.wav
Pre-gap length 0:00:04.16
Peak level 91.1 %
Extraction speed 4.6 X
Track quality 100.0 %
Test CRC A589A9AD
Copy CRC A589A9AD
Accurately ripped (confidence 4) [8E57BA6E] (AR v2)
Copy OK
Track 7
Filename C:\Rips\Various Artists - Heavy Sugar Second Spoonful More Pure Essence Of New Orleans R&B (2010) [FLAC]\CD2\07 - Fats Domino - Don't You Know I Love You.wav
Pre-gap length 0:00:04.53
Peak level 76.6 %
Extraction speed 4.7 X
Track quality 100.0 %
Test CRC 81953C18
Copy CRC 81953C18
Accurately ripped (confidence 4) [1B87EED0] (AR v2)
Copy OK
Track 8
Filename C:\Rips\Various Artists - Heavy Sugar Second Spoonful More Pure Essence Of New Orleans R&B (2010) [FLAC]\CD2\08 - Paul Marvin - Hurry Up.wav
Pre-gap length 0:00:03.33
Peak level 89.5 %
Extraction speed 4.9 X
Track quality 100.0 %
Test CRC 48102202
Copy CRC 48102202
Accurately ripped (confidence 4) [7D789C62] (AR v2)
Copy OK
Track 9
Filename C:\Rips\Various Artists - Heavy Sugar Second Spoonful More Pure Essence Of New Orleans R&B (2010) [FLAC]\CD2\09 - Professor Longhair - Baby, Let Me Hold Your Hand.wav
Pre-gap length 0:00:04.29
Peak level 67.1 %
Extraction speed 3.7 X
Track quality 99.9 %
Test CRC 5ED6C48B
Copy CRC 5ED6C48B
Accurately ripped (confidence 4) [2F475140] (AR v2)
Copy OK
Track 10
Filename C:\Rips\Various Artists - Heavy Sugar Second Spoonful More Pure Essence Of New Orleans R&B (2010) [FLAC]\CD2\10 - The Upsetters - Jaywalking.wav
Pre-gap length 0:00:04.48
Peak level 83.3 %
Extraction speed 5.2 X
Track quality 100.0 %
Test CRC 5F79869A
Copy CRC 5F79869A
Accurately ripped (confidence 4) [698098DE] (AR v2)
Copy OK
Track 11
Filename C:\Rips\Various Artists - Heavy Sugar Second Spoonful More Pure Essence Of New Orleans R&B (2010) [FLAC]\CD2\11 - Huey 'Piano' Smith & His Clowns - Just A Lonely Clown.wav
Pre-gap length 0:00:04.50
Peak level 76.4 %
Extraction speed 5.5 X
Track quality 100.0 %
Test CRC 662448AB
Copy CRC 662448AB
Accurately ripped (confidence 4) [93E2F21C] (AR v2)
Copy OK
Track 12
Filename C:\Rips\Various Artists - Heavy Sugar Second Spoonful More Pure Essence Of New Orleans R&B (2010) [FLAC]\CD2\12 - Dee Clark & The Original Little Richard Band - Oh Little Girl.wav
Pre-gap length 0:00:04.12
Peak level 93.7 %
Extraction speed 5.7 X
Track quality 100.0 %
Test CRC 987D47B6
Copy CRC 987D47B6
Accurately ripped (confidence 4) [D5AF5852] (AR v2)
Copy OK
Track 13
Filename C:\Rips\Various Artists - Heavy Sugar Second Spoonful More Pure Essence Of New Orleans R&B (2010) [FLAC]\CD2\13 - Jessie Hill - Scoop Scoobie Doobie.wav
Pre-gap length 0:00:04.57
Peak level 98.7 %
Extraction speed 6.0 X
Track quality 100.0 %
Test CRC 33A41A58
Copy CRC 33A41A58
Accurately ripped (confidence 4) [F0602C99] (AR v2)
Copy OK
Track 14
Filename C:\Rips\Various Artists - Heavy Sugar Second Spoonful More Pure Essence Of New Orleans R&B (2010) [FLAC]\CD2\14 - Johnny Love & His Orchestra - Chills And Fever.wav
Pre-gap length 0:00:04.06
Peak level 71.5 %
Extraction speed 5.9 X
Track quality 100.0 %
Test CRC 320308B3
Copy CRC 320308B3
Accurately ripped (confidence 4) [5938FA9B] (AR v2)
Copy OK
Track 15
Filename C:\Rips\Various Artists - Heavy Sugar Second Spoonful More Pure Essence Of New Orleans R&B (2010) [FLAC]\CD2\15 - Frankie Ford - The Groom.wav
Pre-gap length 0:00:04.43
Peak level 93.0 %
Extraction speed 5.6 X
Track quality 100.0 %
Test CRC DDD27F55
Copy CRC DDD27F55
Accurately ripped (confidence 4) [4FAB9547] (AR v2)
Copy OK
Track 16
Filename C:\Rips\Various Artists - Heavy Sugar Second Spoonful More Pure Essence Of New Orleans R&B (2010) [FLAC]\CD2\16 - Roy Brown - Good Rocking Tonight.wav
Pre-gap length 0:00:04.61
Peak level 100.0 %
Extraction speed 5.0 X
Track quality 99.9 %
Test CRC 50C3BFF0
Copy CRC 50C3BFF0
Accurately ripped (confidence 4) [850C9650] (AR v2)
Copy OK
Track 17
Filename C:\Rips\Various Artists - Heavy Sugar Second Spoonful More Pure Essence Of New Orleans R&B (2010) [FLAC]\CD2\17 - Smiley Lewis - Lil Liza Jane.wav
Pre-gap length 0:00:03.31
Peak level 84.1 %
Extraction speed 6.3 X
Track quality 100.0 %
Test CRC 039BEEEE
Copy CRC 039BEEEE
Accurately ripped (confidence 4) [78FEDD12] (AR v2)
Copy OK
Track 18
Filename C:\Rips\Various Artists - Heavy Sugar Second Spoonful More Pure Essence Of New Orleans R&B (2010) [FLAC]\CD2\18 - Lenny Capello & The Dots - Tottles.wav
Pre-gap length 0:00:04.04
Peak level 93.2 %
Extraction speed 6.4 X
Track quality 100.0 %
Test CRC 9EFE5568
Copy CRC 9EFE5568
Accurately ripped (confidence 4) [F17F44BB] (AR v2)
Copy OK
Track 19
Filename C:\Rips\Various Artists - Heavy Sugar Second Spoonful More Pure Essence Of New Orleans R&B (2010) [FLAC]\CD2\19 - Erie K-Doe - Make You Love Me.wav
Pre-gap length 0:00:05.13
Peak level 100.0 %
Extraction speed 4.8 X
Track quality 99.9 %
Test CRC 1E0FACD4
Copy CRC 1E0FACD4
Accurately ripped (confidence 4) [CB26E429] (AR v2)
Copy OK
Track 20
Filename C:\Rips\Various Artists - Heavy Sugar Second Spoonful More Pure Essence Of New Orleans R&B (2010) [FLAC]\CD2\20 - Matthew Jacobs - Loaded Down.wav
Pre-gap length 0:00:04.43
Peak level 100.0 %
Extraction speed 6.5 X
Track quality 100.0 %
Test CRC B6BBDDA2
Copy CRC B6BBDDA2
Accurately ripped (confidence 4) [A219FAB9] (AR v2)
Copy OK
Track 21
Filename C:\Rips\Various Artists - Heavy Sugar Second Spoonful More Pure Essence Of New Orleans R&B (2010) [FLAC]\CD2\21 - Collay & The Satellites - Little Girl Next Door.wav
Pre-gap length 0:00:04.41
Peak level 92.8 %
Extraction speed 6.5 X
Track quality 100.0 %
Test CRC 5C0FD51D
Copy CRC 5C0FD51D
Accurately ripped (confidence 4) [A4029286] (AR v2)
Copy OK
Track 22
Filename C:\Rips\Various Artists - Heavy Sugar Second Spoonful More Pure Essence Of New Orleans R&B (2010) [FLAC]\CD2\22 - Irma Thomas - A Good Man.wav
Pre-gap length 0:00:05.08
Peak level 100.0 %
Extraction speed 6.9 X
Track quality 100.0 %
Test CRC A6105773
Copy CRC A6105773
Accurately ripped (confidence 4) [060E1DC4] (AR v2)
Copy OK
Track 23
Filename C:\Rips\Various Artists - Heavy Sugar Second Spoonful More Pure Essence Of New Orleans R&B (2010) [FLAC]\CD2\23 - James 'Sugar Boy' Crawford - She's Gotta Wobble (When She Walks).wav
Pre-gap length 0:00:04.50
Peak level 98.5 %
Extraction speed 6.9 X
Track quality 100.0 %
Test CRC 6A0C64D1
Copy CRC 6A0C64D1
Accurately ripped (confidence 4) [853545B1] (AR v2)
Copy OK
Track 24
Filename C:\Rips\Various Artists - Heavy Sugar Second Spoonful More Pure Essence Of New Orleans R&B (2010) [FLAC]\CD2\24 - Paul Gayten & Orchestra - Mule Face.wav
Pre-gap length 0:00:04.18
Peak level 100.0 %
Extraction speed 5.0 X
Track quality 99.9 %
Test CRC 9FF9A499
Copy CRC 9FF9A499
Accurately ripped (confidence 4) [E988FB53] (AR v2)
Copy OK
Track 25
Filename C:\Rips\Various Artists - Heavy Sugar Second Spoonful More Pure Essence Of New Orleans R&B (2010) [FLAC]\CD2\25 - Li'l Millet - Rock Around The Clock.wav
Pre-gap length 0:00:05.03
Peak level 96.0 %
Extraction speed 6.9 X
Track quality 100.0 %
Test CRC ADC287E6
Copy CRC ADC287E6
Accurately ripped (confidence 4) [D3178C5E] (AR v2)
Copy OK
All tracks accurately ripped
No errors occurred
End of status report
–– CUETools DB Plugin V2.1.6
[CTDB TOCID: _9DiWQ7tR3KhpOu0rcmV5F91n0A-] disk not present in database
Submit result: _9DiWQ7tR3KhpOu0rcmV5F91n0A- has been uploaded
==== Log checksum D54C4D0E20126256EC7D8BC2000E146CEC3A05368B3DC8172FC61EC34E98857E ====
Код:
Exact Audio Copy V1.2 from 12. August 2016
EAC extraction logfile from 7. October 2016, 10:55
Various Artists / Heavy Sugar Second Spoonful: More Pure Essence Of New Orleans R&B (Disc 3)
Used drive : TSSTcorpCDDVDW SH-224BB Adapter: 1 ID: 0
Read mode : Secure
Utilize accurate stream : Yes
Defeat audio cache : Yes
Make use of C2 pointers : No
Read offset correction : 6
Overread into Lead-In and Lead-Out : No
Fill up missing offset samples with silence : Yes
Delete leading and trailing silent blocks : No
Null samples used in CRC calculations : Yes
Used interface : Native Win32 interface for Win NT & 2000
Gap handling : Appended to previous track
Used output format : User Defined Encoder
Selected bitrate : 768 kBit/s
Quality : High
Add ID3 tag : No
Command line compressor : C:\Program Files (x86)\Exact Audio Copy\Flac\flac.exe
Additional command line options : -8 -V -T "ARTIST=%artist%" -T "TITLE=%title%" -T "ALBUM=%albumtitle%" -T "DATE=%year%" -T "TRACKNUMBER=%tracknr%" -T "TOTALTRACKS=%numtracks%" -T "GENRE=%genre%" -T "ALBUMARTIST=%albumartist%" -T "ALBUM ARTIST=%albumartist%" -T "COMMENT=EAC Secure Mode, Test & Copy, AccurateRip, FLAC -8" %source%
TOC of the extracted CD
Track | Start | Length | Start sector | End sector
––––––––––––––––––––––––––––-
1 | 0:00.00 | 2:14.49 | 0 | 10098
2 | 2:14.49 | 2:11.23 | 10099 | 19946
3 | 4:25.72 | 2:23.25 | 19947 | 30696
4 | 6:49.22 | 2:49.56 | 30697 | 43427
5 | 9:39.03 | 2:38.27 | 43428 | 55304
6 | 12:17.30 | 2:47.07 | 55305 | 67836
7 | 15:04.37 | 2:06.62 | 67837 | 77348
8 | 17:11.24 | 2:36.57 | 77349 | 89105
9 | 19:48.06 | 2:32.19 | 89106 | 100524
10 | 22:20.25 | 2:17.52 | 100525 | 110851
11 | 24:38.02 | 2:12.56 | 110852 | 120807
12 | 26:50.58 | 2:15.58 | 120808 | 130990
13 | 29:06.41 | 2:16.26 | 130991 | 141216
14 | 31:22.67 | 2:32.29 | 141217 | 152645
15 | 33:55.21 | 2:21.12 | 152646 | 163232
16 | 36:16.33 | 2:16.31 | 163233 | 173463
17 | 38:32.64 | 2:37.64 | 173464 | 185302
18 | 41:10.53 | 2:42.44 | 185303 | 197496
19 | 43:53.22 | 2:35.65 | 197497 | 209186
20 | 46:29.12 | 2:28.72 | 209187 | 220358
21 | 48:58.09 | 2:09.08 | 220359 | 230041
22 | 51:07.17 | 2:04.31 | 230042 | 239372
23 | 53:11.48 | 2:29.73 | 239373 | 250620
24 | 55:41.46 | 2:36.06 | 250621 | 262326
25 | 58:17.52 | 2:41.39 | 262327 | 274440
Track 1
Filename C:\Rips\Various Artists - Heavy Sugar Second Spoonful More Pure Essence Of New Orleans R&B (2010) [FLAC]\CD3\01 - Al Reed - Top Notch Grade A.wav
Pre-gap length 0:00:02.00
Peak level 90.8 %
Extraction speed 1.4 X
Track quality 100.0 %
Test CRC BEC93E79
Copy CRC BEC93E79
Accurately ripped (confidence 4) [D7E4A531] (AR v2)
Copy OK
Track 2
Filename C:\Rips\Various Artists - Heavy Sugar Second Spoonful More Pure Essence Of New Orleans R&B (2010) [FLAC]\CD3\02 - Fats Domino - When I See You.wav
Pre-gap length 0:00:04.42
Peak level 85.4 %
Extraction speed 1.5 X
Track quality 100.0 %
Test CRC 9A5A411C
Copy CRC 9A5A411C
Accurately ripped (confidence 4) [1C906BF1] (AR v2)
Copy OK
Track 3
Filename C:\Rips\Various Artists - Heavy Sugar Second Spoonful More Pure Essence Of New Orleans R&B (2010) [FLAC]\CD3\03 - Chris Kenner - Don't Make No Noise.wav
Pre-gap length 0:00:04.05
Peak level 82.1 %
Extraction speed 1.7 X
Track quality 100.0 %
Test CRC BDE477E0
Copy CRC BDE477E0
Accurately ripped (confidence 4) [18B8A7FB] (AR v2)
Copy OK
Track 4
Filename C:\Rips\Various Artists - Heavy Sugar Second Spoonful More Pure Essence Of New Orleans R&B (2010) [FLAC]\CD3\04 - Professor Longhair - Go To The Mardi Gras.wav
Pre-gap length 0:00:06.18
Peak level 100.0 %
Extraction speed 1.8 X
Track quality 100.0 %
Test CRC 1694AC6F
Copy CRC 1694AC6F
Accurately ripped (confidence 4) [4C9EE52E] (AR v2)
Copy OK
Track 5
Filename C:\Rips\Various Artists - Heavy Sugar Second Spoonful More Pure Essence Of New Orleans R&B (2010) [FLAC]\CD3\05 - Bobby Marchan - Quit My Job.wav
Pre-gap length 0:00:02.51
Peak level 97.2 %
Extraction speed 1.6 X
Track quality 99.9 %
Test CRC 4A72FF98
Copy CRC 4A72FF98
Accurately ripped (confidence 4) [C17708D8] (AR v2)
Copy OK
Track 6
Filename C:\Rips\Various Artists - Heavy Sugar Second Spoonful More Pure Essence Of New Orleans R&B (2010) [FLAC]\CD3\06 - Jessie Hill - High Head Blues.wav
Pre-gap length 0:00:03.71
Peak level 89.4 %
Extraction speed 2.0 X
Track quality 100.0 %
Test CRC B56C385F
Copy CRC B56C385F
Accurately ripped (confidence 4) [9E1BFAFC] (AR v2)
Copy OK
Track 7
Filename C:\Rips\Various Artists - Heavy Sugar Second Spoonful More Pure Essence Of New Orleans R&B (2010) [FLAC]\CD3\07 - James 'Sugar Boy' Crawford - You Gave Me Love.wav
Pre-gap length 0:00:03.53
Peak level 83.0 %
Extraction speed 1.5 X
Track quality 99.9 %
Test CRC 4390A44A
Copy CRC 4390A44A
Accurately ripped (confidence 4) [8A65EF89] (AR v2)
Copy OK
Track 8
Filename C:\Rips\Various Artists - Heavy Sugar Second Spoonful More Pure Essence Of New Orleans R&B (2010) [FLAC]\CD3\08 - Jimmy Beasley - Good Lovin'.wav
Pre-gap length 0:00:05.31
Peak level 81.7 %
Extraction speed 2.2 X
Track quality 100.0 %
Test CRC 745A8520
Copy CRC 745A8520
Accurately ripped (confidence 4) [E77BC6AC] (AR v2)
Copy OK
Track 9
Filename C:\Rips\Various Artists - Heavy Sugar Second Spoonful More Pure Essence Of New Orleans R&B (2010) [FLAC]\CD3\09 - The Monitors - Candy Coated Kisses.wav
Pre-gap length 0:00:03.47
Peak level 100.0 %
Extraction speed 2.3 X
Track quality 100.0 %
Test CRC F219F703
Copy CRC F219F703
Accurately ripped (confidence 4) [5A7F8CE1] (AR v2)
Copy OK
Track 10
Filename C:\Rips\Various Artists - Heavy Sugar Second Spoonful More Pure Essence Of New Orleans R&B (2010) [FLAC]\CD3\10 - Billy Tircuit - Crazy Green Lizard.wav
Pre-gap length 0:00:04.60
Peak level 100.0 %
Extraction speed 2.2 X
Track quality 100.0 %
Test CRC 92935727
Copy CRC 92935727
Accurately ripped (confidence 4) [AC0AAC90] (AR v2)
Copy OK
Track 11
Filename C:\Rips\Various Artists - Heavy Sugar Second Spoonful More Pure Essence Of New Orleans R&B (2010) [FLAC]\CD3\11 - Wynona Carr - I'm Mad At You.wav
Pre-gap length 0:00:04.47
Peak level 87.7 %
Extraction speed 2.3 X
Track quality 100.0 %
Test CRC A4171664
Copy CRC A4171664
Accurately ripped (confidence 4) [38F81AC4] (AR v2)
Copy OK
Track 12
Filename C:\Rips\Various Artists - Heavy Sugar Second Spoonful More Pure Essence Of New Orleans R&B (2010) [FLAC]\CD3\12 - Arthur & Booker - You're Near Me.wav
Pre-gap length 0:00:04.13
Peak level 90.0 %
Extraction speed 1.7 X
Track quality 99.9 %
Test CRC E092F5B2
Copy CRC E092F5B2
Accurately ripped (confidence 4) [ADBE6A16] (AR v2)
Copy OK
Track 13
Filename C:\Rips\Various Artists - Heavy Sugar Second Spoonful More Pure Essence Of New Orleans R&B (2010) [FLAC]\CD3\13 - Smiley Lewis - Can't Stop Loving You.wav
Pre-gap length 0:00:04.31
Peak level 94.4 %
Extraction speed 2.5 X
Track quality 100.0 %
Test CRC 2253ABA9
Copy CRC 2253ABA9
Accurately ripped (confidence 4) [65EFA63B] (AR v2)
Copy OK
Track 14
Filename C:\Rips\Various Artists - Heavy Sugar Second Spoonful More Pure Essence Of New Orleans R&B (2010) [FLAC]\CD3\14 - Huey 'Piano' Smith & His Clowns - For Cryin' Out Loud.wav
Pre-gap length 0:00:05.17
Peak level 66.6 %
Extraction speed 1.9 X
Track quality 99.9 %
Test CRC E61AA2F1
Copy CRC E61AA2F1
Accurately ripped (confidence 4) [2F6F432D] (AR v2)
Copy OK
Track 15
Filename C:\Rips\Various Artists - Heavy Sugar Second Spoonful More Pure Essence Of New Orleans R&B (2010) [FLAC]\CD3\15 - Al Tousan - Chico.wav
Pre-gap length 0:00:04.45
Peak level 94.7 %
Extraction speed 2.6 X
Track quality 100.0 %
Test CRC 85818EFE
Copy CRC 85818EFE
Accurately ripped (confidence 4) [8B41108C] (AR v2)
Copy OK
Track 16
Filename C:\Rips\Various Artists - Heavy Sugar Second Spoonful More Pure Essence Of New Orleans R&B (2010) [FLAC]\CD3\16 - Eddie Bo - Every Dog Got It's Day.wav
Pre-gap length 0:00:05.54
Peak level 100.0 %
Extraction speed 1.7 X
Track quality 99.9 %
Test CRC 6F99CC35
Copy CRC 6F99CC35
Accurately ripped (confidence 4) [DDC83E81] (AR v2)
Copy OK
Track 17
Filename C:\Rips\Various Artists - Heavy Sugar Second Spoonful More Pure Essence Of New Orleans R&B (2010) [FLAC]\CD3\17 - Calvin Spears - Baby Come On Home.wav
Pre-gap length 0:00:04.43
Peak level 83.4 %
Extraction speed 2.7 X
Track quality 100.0 %
Test CRC 56E4A173
Copy CRC 56E4A173
Accurately ripped (confidence 4) [5000612D] (AR v2)
Copy OK
Track 18
Filename C:\Rips\Various Artists - Heavy Sugar Second Spoonful More Pure Essence Of New Orleans R&B (2010) [FLAC]\CD3\18 - Clarence Henry - Just My Baby And You.wav
Pre-gap length 0:00:04.47
Peak level 74.4 %
Extraction speed 2.8 X
Track quality 100.0 %
Test CRC D4332729
Copy CRC D4332729
Accurately ripped (confidence 4) [F0F36057] (AR v2)
Copy OK
Track 19
Filename C:\Rips\Various Artists - Heavy Sugar Second Spoonful More Pure Essence Of New Orleans R&B (2010) [FLAC]\CD3\19 - Big Boy Myles - She's So Fine.wav
Pre-gap length 0:00:05.49
Peak level 81.0 %
Extraction speed 2.7 X
Track quality 100.0 %
Test CRC 46810DD3
Copy CRC 46810DD3
Accurately ripped (confidence 4) [5C1923C8] (AR v2)
Copy OK
Track 20
Filename C:\Rips\Various Artists - Heavy Sugar Second Spoonful More Pure Essence Of New Orleans R&B (2010) [FLAC]\CD3\20 - Paul Gayten - Tickle Toe.wav
Pre-gap length 0:00:04.56
Peak level 96.0 %
Extraction speed 2.8 X
Track quality 100.0 %
Test CRC 816ADD29
Copy CRC 816ADD29
Accurately ripped (confidence 4) [078D417F] (AR v2)
Copy OK
Track 21
Filename C:\Rips\Various Artists - Heavy Sugar Second Spoonful More Pure Essence Of New Orleans R&B (2010) [FLAC]\CD3\21 - Frankie Ford - Watchdog.wav
Pre-gap length 0:00:04.31
Peak level 100.0 %
Extraction speed 1.8 X
Track quality 99.9 %
Test CRC A5959AF8
Copy CRC A5959AF8
Accurately ripped (confidence 4) [48249AAC] (AR v2)
Copy OK
Track 22
Filename C:\Rips\Various Artists - Heavy Sugar Second Spoonful More Pure Essence Of New Orleans R&B (2010) [FLAC]\CD3\22 - Aaron Neville - Get Out Of My Life.wav
Pre-gap length 0:00:05.18
Peak level 100.0 %
Extraction speed 2.8 X
Track quality 100.0 %
Test CRC F5276DAF
Copy CRC F5276DAF
Accurately ripped (confidence 4) [8E351B98] (AR v2)
Copy OK
Track 23
Filename C:\Rips\Various Artists - Heavy Sugar Second Spoonful More Pure Essence Of New Orleans R&B (2010) [FLAC]\CD3\23 - Little Richard - Can't Believe You Wanna Leave.wav
Pre-gap length 0:00:04.39
Peak level 77.3 %
Extraction speed 3.1 X
Track quality 100.0 %
Test CRC 182DE581
Copy CRC 182DE581
Accurately ripped (confidence 4) [3FFE4294] (AR v2)
Copy OK
Track 24
Filename C:\Rips\Various Artists - Heavy Sugar Second Spoonful More Pure Essence Of New Orleans R&B (2010) [FLAC]\CD3\24 - Professor Longhair - If I Only Knew.wav
Pre-gap length 0:00:04.19
Peak level 100.0 %
Extraction speed 3.2 X
Track quality 100.0 %
Test CRC 736DBB14
Copy CRC 736DBB14
Accurately ripped (confidence 4) [70AD23F3] (AR v2)
Copy OK
Track 25
Filename C:\Rips\Various Artists - Heavy Sugar Second Spoonful More Pure Essence Of New Orleans R&B (2010) [FLAC]\CD3\25 - Al Johnson - Carnival Time.wav
Pre-gap length 0:00:05.01
Peak level 100.0 %
Extraction speed 3.2 X
Track quality 100.0 %
Test CRC 941AD27D
Copy CRC 941AD27D
Accurately ripped (confidence 4) [C446A321] (AR v2)
Copy OK
All tracks accurately ripped
No errors occurred
End of status report
–– CUETools DB Plugin V2.1.6
[CTDB TOCID: Hm_H1yu9H53VNM.bQd0PYNd_FGE-] disk not present in database
Submit result: Hm_H1yu9H53VNM.bQd0PYNd_FGE- has been uploaded
==== Log checksum 1A8D79FBA8EB2F822C1A93A000FB8980034727354CBD55F6B6C502D1C9C28A08 ====
Код:
REM GENRE Rock
REM DATE 2011
REM DISCID 790DD619
REM COMMENT "ExactAudioCopy v1.2"
PERFORMER "Various Artists"
TITLE "Heavy Sugar Second Spoonful: More Pure Essence Of New Orleans R&B (Disc 1)"
REM COMPOSER ""
FILE "01 - Little Richard - The Girl Can't Help It (soundtrack version).wav" WAVE
  TRACK 01 AUDIO
    TITLE "The Girl Can't Help It (soundtrack version)"
    PERFORMER "Little Richard"
    REM COMPOSER ""
    INDEX 01 00:00:00
  TRACK 02 AUDIO
    TITLE "Beatnik Blues"
    PERFORMER "Huey 'Piano' Smith & His Clowns"
    REM COMPOSER ""
    INDEX 00 02:25:37
FILE "02 - Huey 'Piano' Smith & His Clowns - Beatnik Blues.wav" WAVE
    INDEX 01 00:00:00
  TRACK 03 AUDIO
    TITLE "You Talk Too Much"
    PERFORMER "Frankie Ford"
    REM COMPOSER ""
    INDEX 00 02:17:72
FILE "03 - Frankie Ford - You Talk Too Much.wav" WAVE
    INDEX 01 00:00:00
  TRACK 04 AUDIO
    TITLE "I'm Pleading Just For You"
    PERFORMER "Larry Birdsong"
    REM COMPOSER ""
    INDEX 00 02:31:29
FILE "04 - Larry Birdsong - I'm Pleading Just For You.wav" WAVE
    INDEX 01 00:00:00
  TRACK 05 AUDIO
    TITLE "Cat Walk"
    PERFORMER "Lee Allen"
    REM COMPOSER ""
    INDEX 00 02:40:18
FILE "05 - Lee Allen - Cat Walk.wav" WAVE
    INDEX 01 00:00:00
  TRACK 06 AUDIO
    TITLE "Preacher's Daughter"
    PERFORMER "Roland Stone"
    REM COMPOSER ""
    INDEX 00 02:11:02
FILE "06 - Roland Stone - Preacher's Daughter.wav" WAVE
    INDEX 01 00:00:00
  TRACK 07 AUDIO
    TITLE "Funny Thing"
    PERFORMER "Jo-Ann Campbell"
    REM COMPOSER ""
    INDEX 00 02:24:09
FILE "07 - Jo-Ann Campbell - Funny Thing.wav" WAVE
    INDEX 01 00:00:00
  TRACK 08 AUDIO
    TITLE "Why Can't You"
    PERFORMER "Bobby Charles"
    REM COMPOSER ""
    INDEX 00 01:54:37
FILE "08 - Bobby Charles - Why Can't You.wav" WAVE
    INDEX 01 00:00:00
  TRACK 09 AUDIO
    TITLE "She's Good To Me"
    PERFORMER "Jimmy Beasley"
    REM COMPOSER ""
    INDEX 00 02:29:06
FILE "09 - Jimmy Beasley - She's Good To Me.wav" WAVE
    INDEX 01 00:00:00
  TRACK 10 AUDIO
    TITLE "It's A Sin To Tell A Lie"
    PERFORMER "Charles Brown"
    REM COMPOSER ""
    INDEX 00 02:00:09
FILE "10 - Charles Brown - It's A Sin To Tell A Lie.wav" WAVE
    INDEX 01 00:00:00
  TRACK 11 AUDIO
    TITLE "I Get The Blues When It Rains"
    PERFORMER "Alonzo Stewart"
    REM COMPOSER ""
    INDEX 00 02:32:12
FILE "11 - Alonzo Stewart - I Get The Blues When It Rains.wav" WAVE
    INDEX 01 00:00:00
  TRACK 12 AUDIO
    TITLE "Morning Star"
    PERFORMER "James 'Sugar Boy' Crawford"
    REM COMPOSER ""
    INDEX 00 01:59:06
FILE "12 - James 'Sugar Boy' Crawford - Morning Star.wav" WAVE
    INDEX 01 00:00:00
  TRACK 13 AUDIO
    TITLE "A Man Like Me"
    PERFORMER "Willie West"
    REM COMPOSER ""
    INDEX 00 02:11:21
FILE "13 - Willie West - A Man Like Me.wav" WAVE
    INDEX 01 00:00:00
  TRACK 14 AUDIO
    TITLE "Tell Me That You Love Me"
    PERFORMER "Fats Domino"
    REM COMPOSER ""
    INDEX 00 02:18:72
FILE "14 - Fats Domino - Tell Me That You Love Me.wav" WAVE
    INDEX 01 00:00:00
  TRACK 15 AUDIO
    TITLE "Sister Jenny"
    PERFORMER "Johnny Fuller"
    REM COMPOSER ""
    INDEX 00 02:01:15
FILE "15 - Johnny Fuller - Sister Jenny.wav" WAVE
    INDEX 01 00:00:00
  TRACK 16 AUDIO
    TITLE "McDonald's Daughter"
    PERFORMER "Lester Williams"
    REM COMPOSER ""
    INDEX 00 02:31:30
FILE "16 - Lester Williams - McDonald's Daughter.wav" WAVE
    INDEX 01 00:00:00
  TRACK 17 AUDIO
    TITLE "I Shall Not Be Moved"
    PERFORMER "Smiley Lewis"
    REM COMPOSER ""
    INDEX 00 01:59:34
FILE "17 - Smiley Lewis - I Shall Not Be Moved.wav" WAVE
    INDEX 01 00:00:00
  TRACK 18 AUDIO
    TITLE "You Can't Beat Uncle Sam"
    PERFORMER "Chris Kenner"
    REM COMPOSER ""
    INDEX 00 02:00:18
FILE "18 - Chris Kenner - You Can't Beat Uncle Sam.wav" WAVE
    INDEX 01 00:00:00
  TRACK 19 AUDIO
    TITLE "I'm In Love"
    PERFORMER "Clarence 'Frogman' Henry"
    REM COMPOSER ""
    INDEX 00 02:25:00
FILE "19 - Clarence 'Frogman' Henry - I'm In Love.wav" WAVE
    INDEX 01 00:00:00
  TRACK 20 AUDIO
    TITLE "Snoopin' And Accusin'"
    PERFORMER "Bobby Marchan & The Tick Tocks"
    REM COMPOSER ""
    INDEX 00 02:26:68
FILE "20 - Bobby Marchan & The Tick Tocks - Snoopin' And Accusin'.wav" WAVE
    INDEX 01 00:00:00
  TRACK 21 AUDIO
    TITLE "Little Bit"
    PERFORMER "Bobby Lonero"
    REM COMPOSER ""
    INDEX 00 02:05:66
FILE "21 - Bobby Lonero - Little Bit.wav" WAVE
    INDEX 01 00:00:00
  TRACK 22 AUDIO
    TITLE "Funny Face"
    PERFORMER "Earl King"
    REM COMPOSER ""
    INDEX 00 02:15:63
FILE "22 - Earl King - Funny Face.wav" WAVE
    INDEX 01 00:00:00
  TRACK 23 AUDIO
    TITLE "Ammerette"
    PERFORMER "Benny Spellman"
    REM COMPOSER ""
    INDEX 00 02:02:39
FILE "23 - Benny Spellman - Ammerette.wav" WAVE
    INDEX 01 00:00:00
  TRACK 24 AUDIO
    TITLE "Jam Up"
    PERFORMER "Tommy Ridgley"
    REM COMPOSER ""
    INDEX 00 02:33:37
FILE "24 - Tommy Ridgley - Jam Up.wav" WAVE
    INDEX 01 00:00:00
  TRACK 25 AUDIO
    TITLE "School Girl"
    PERFORMER "The Hawks"
    REM COMPOSER ""
    INDEX 00 02:44:30
FILE "25 - The Hawks - School Girl.wav" WAVE
    INDEX 01 00:00:00
Код:
REM GENRE Rock
REM DATE 2011
REM DISCID 660D8C19
REM COMMENT "ExactAudioCopy v1.2"
PERFORMER "Various Artists"
TITLE "Heavy Sugar Second Spoonful: More Pure Essence Of New Orleans R&B (Disc 2)"
REM COMPOSER ""
FILE "01 - Jimmy Beasley - Little Coquette.wav" WAVE
  TRACK 01 AUDIO
    TITLE "Little Coquette"
    PERFORMER "Jimmy Beasley"
    REM COMPOSER ""
    INDEX 01 00:00:00
  TRACK 02 AUDIO
    TITLE "Shake Shake"
    PERFORMER "Amos Milburn"
    REM COMPOSER ""
    INDEX 00 02:12:22
FILE "02 - Amos Milburn - Shake Shake.wav" WAVE
    INDEX 01 00:00:00
  TRACK 03 AUDIO
    TITLE "We Like Mambo"
    PERFORMER "Eddie Bo"
    REM COMPOSER ""
    INDEX 00 01:56:51
FILE "03 - Eddie Bo - We Like Mambo.wav" WAVE
    INDEX 01 00:00:00
  TRACK 04 AUDIO
    TITLE "Honey Bee"
    PERFORMER "The Spiders with Chuck Carbo"
    REM COMPOSER ""
    INDEX 00 02:28:04
FILE "04 - The Spiders with Chuck Carbo - Honey Bee.wav" WAVE
    INDEX 01 00:00:00
  TRACK 05 AUDIO
    TITLE "All Night Long"
    PERFORMER "Little Richard"
    REM COMPOSER ""
    INDEX 00 01:59:44
FILE "05 - Little Richard - All Night Long.wav" WAVE
    INDEX 01 00:00:00
  TRACK 06 AUDIO
    TITLE "Single Life"
    PERFORMER "Billy Tate"
    REM COMPOSER ""
    INDEX 00 02:12:31
FILE "06 - Billy Tate - Single Life.wav" WAVE
    INDEX 01 00:00:00
  TRACK 07 AUDIO
    TITLE "Don't You Know I Love You"
    PERFORMER "Fats Domino"
    REM COMPOSER ""
    INDEX 00 02:12:20
FILE "07 - Fats Domino - Don't You Know I Love You.wav" WAVE
    INDEX 01 00:00:00
  TRACK 08 AUDIO
    TITLE "Hurry Up"
    PERFORMER "Paul Marvin"
    REM COMPOSER ""
    INDEX 00 02:10:03
FILE "08 - Paul Marvin - Hurry Up.wav" WAVE
    INDEX 01 00:00:00
  TRACK 09 AUDIO
    TITLE "Baby, Let Me Hold Your Hand"
    PERFORMER "Professor Longhair"
    REM COMPOSER ""
    INDEX 00 02:19:05
FILE "09 - Professor Longhair - Baby, Let Me Hold Your Hand.wav" WAVE
    INDEX 01 00:00:00
  TRACK 10 AUDIO
    TITLE "Jaywalking"
    PERFORMER "The Upsetters"
    REM COMPOSER ""
    INDEX 00 02:12:33
FILE "10 - The Upsetters - Jaywalking.wav" WAVE
    INDEX 01 00:00:00
  TRACK 11 AUDIO
    TITLE "Just A Lonely Clown"
    PERFORMER "Huey 'Piano' Smith & His Clowns"
    REM COMPOSER ""
    INDEX 00 02:27:39
FILE "11 - Huey 'Piano' Smith & His Clowns - Just A Lonely Clown.wav" WAVE
    INDEX 01 00:00:00
  TRACK 12 AUDIO
    TITLE "Oh Little Girl"
    PERFORMER "Dee Clark & The Original Little Richard Band"
    REM COMPOSER ""
    INDEX 00 02:09:62
FILE "12 - Dee Clark & The Original Little Richard Band - Oh Little Girl.wav" WAVE
    INDEX 01 00:00:00
  TRACK 13 AUDIO
    TITLE "Scoop Scoobie Doobie"
    PERFORMER "Jessie Hill"
    REM COMPOSER ""
    INDEX 00 02:38:02
FILE "13 - Jessie Hill - Scoop Scoobie Doobie.wav" WAVE
    INDEX 01 00:00:00
  TRACK 14 AUDIO
    TITLE "Chills And Fever"
    PERFORMER "Johnny Love & His Orchestra"
    REM COMPOSER ""
    INDEX 00 02:52:19
FILE "14 - Johnny Love & His Orchestra - Chills And Fever.wav" WAVE
    INDEX 01 00:00:00
  TRACK 15 AUDIO
    TITLE "The Groom"
    PERFORMER "Frankie Ford"
    REM COMPOSER ""
    INDEX 00 02:26:16
FILE "15 - Frankie Ford - The Groom.wav" WAVE
    INDEX 01 00:00:00
  TRACK 16 AUDIO
    TITLE "Good Rocking Tonight"
    PERFORMER "Roy Brown"
    REM COMPOSER ""
    INDEX 00 01:44:70
FILE "16 - Roy Brown - Good Rocking Tonight.wav" WAVE
    INDEX 01 00:00:00
  TRACK 17 AUDIO
    TITLE "Lil Liza Jane"
    PERFORMER "Smiley Lewis"
    REM COMPOSER ""
    INDEX 00 02:57:65
FILE "17 - Smiley Lewis - Lil Liza Jane.wav" WAVE
    INDEX 01 00:00:00
  TRACK 18 AUDIO
    TITLE "Tottles"
    PERFORMER "Lenny Capello & The Dots"
    REM COMPOSER ""
    INDEX 00 02:10:08
FILE "18 - Lenny Capello & The Dots - Tottles.wav" WAVE
    INDEX 01 00:00:00
  TRACK 19 AUDIO
    TITLE "Make You Love Me"
    PERFORMER "Erie K-Doe"
    REM COMPOSER ""
    INDEX 00 02:11:11
FILE "19 - Erie K-Doe - Make You Love Me.wav" WAVE
    INDEX 01 00:00:00
  TRACK 20 AUDIO
    TITLE "Loaded Down"
    PERFORMER "Matthew Jacobs"
    REM COMPOSER ""
    INDEX 00 02:17:61
FILE "20 - Matthew Jacobs - Loaded Down.wav" WAVE
    INDEX 01 00:00:00
  TRACK 21 AUDIO
    TITLE "Little Girl Next Door"
    PERFORMER "Collay & The Satellites"
    REM COMPOSER ""
    INDEX 00 02:01:14
FILE "21 - Collay & The Satellites - Little Girl Next Door.wav" WAVE
    INDEX 01 00:00:00
  TRACK 22 AUDIO
    TITLE "A Good Man"
    PERFORMER "Irma Thomas"
    REM COMPOSER ""
    INDEX 00 01:54:52
FILE "22 - Irma Thomas - A Good Man.wav" WAVE
    INDEX 01 00:00:00
  TRACK 23 AUDIO
    TITLE "She's Gotta Wobble (When She Walks)"
    PERFORMER "James 'Sugar Boy' Crawford"
    REM COMPOSER ""
    INDEX 00 02:16:14
FILE "23 - James 'Sugar Boy' Crawford - She's Gotta Wobble (When She Walks).wav" WAVE
    INDEX 01 00:00:00
  TRACK 24 AUDIO
    TITLE "Mule Face"
    PERFORMER "Paul Gayten & Orchestra"
    REM COMPOSER ""
    INDEX 00 02:02:54
FILE "24 - Paul Gayten & Orchestra - Mule Face.wav" WAVE
    INDEX 01 00:00:00
  TRACK 25 AUDIO
    TITLE "Rock Around The Clock"
    PERFORMER "Li'l Millet"
    REM COMPOSER ""
    INDEX 00 02:09:06
FILE "25 - Li'l Millet - Rock Around The Clock.wav" WAVE
    INDEX 01 00:00:00
Код:
REM GENRE Rock
REM DATE 2011
REM DISCID 5F0E4B19
REM COMMENT "ExactAudioCopy v1.2"
PERFORMER "Various Artists"
TITLE "Heavy Sugar Second Spoonful: More Pure Essence Of New Orleans R&B (Disc 3)"
REM COMPOSER ""
FILE "01 - Al Reed - Top Notch Grade A.wav" WAVE
  TRACK 01 AUDIO
    TITLE "Top Notch Grade A"
    PERFORMER "Al Reed"
    REM COMPOSER ""
    INDEX 01 00:00:00
  TRACK 02 AUDIO
    TITLE "When I See You"
    PERFORMER "Fats Domino"
    REM COMPOSER ""
    INDEX 00 02:10:07
FILE "02 - Fats Domino - When I See You.wav" WAVE
    INDEX 01 00:00:00
  TRACK 03 AUDIO
    TITLE "Don't Make No Noise"
    PERFORMER "Chris Kenner"
    REM COMPOSER ""
    INDEX 00 02:07:18
FILE "03 - Chris Kenner - Don't Make No Noise.wav" WAVE
    INDEX 01 00:00:00
  TRACK 04 AUDIO
    TITLE "Go To The Mardi Gras"
    PERFORMER "Professor Longhair"
    REM COMPOSER ""
    INDEX 00 02:17:07
FILE "04 - Professor Longhair - Go To The Mardi Gras.wav" WAVE
    INDEX 01 00:00:00
  TRACK 05 AUDIO
    TITLE "Quit My Job"
    PERFORMER "Bobby Marchan"
    REM COMPOSER ""
    INDEX 00 02:47:05
FILE "05 - Bobby Marchan - Quit My Job.wav" WAVE
    INDEX 01 00:00:00
  TRACK 06 AUDIO
    TITLE "High Head Blues"
    PERFORMER "Jessie Hill"
    REM COMPOSER ""
    INDEX 00 02:34:31
FILE "06 - Jessie Hill - High Head Blues.wav" WAVE
    INDEX 01 00:00:00
  TRACK 07 AUDIO
    TITLE "You Gave Me Love"
    PERFORMER "James 'Sugar Boy' Crawford"
    REM COMPOSER ""
    INDEX 00 02:43:29
FILE "07 - James 'Sugar Boy' Crawford - You Gave Me Love.wav" WAVE
    INDEX 01 00:00:00
  TRACK 08 AUDIO
    TITLE "Good Lovin'"
    PERFORMER "Jimmy Beasley"
    REM COMPOSER ""
    INDEX 00 02:01:31
FILE "08 - Jimmy Beasley - Good Lovin'.wav" WAVE
    INDEX 01 00:00:00
  TRACK 09 AUDIO
    TITLE "Candy Coated Kisses"
    PERFORMER "The Monitors"
    REM COMPOSER ""
    INDEX 00 02:33:10
FILE "09 - The Monitors - Candy Coated Kisses.wav" WAVE
    INDEX 01 00:00:00
  TRACK 10 AUDIO
    TITLE "Crazy Green Lizard"
    PERFORMER "Billy Tircuit"
    REM COMPOSER ""
    INDEX 00 02:27:34
FILE "10 - Billy Tircuit - Crazy Green Lizard.wav" WAVE
    INDEX 01 00:00:00
  TRACK 11 AUDIO
    TITLE "I'm Mad At You"
    PERFORMER "Wynona Carr"
    REM COMPOSER ""
    INDEX 00 02:13:05
FILE "11 - Wynona Carr - I'm Mad At You.wav" WAVE
    INDEX 01 00:00:00
  TRACK 12 AUDIO
    TITLE "You're Near Me"
    PERFORMER "Arthur & Booker"
    REM COMPOSER ""
    INDEX 00 02:08:43
FILE "12 - Arthur & Booker - You're Near Me.wav" WAVE
    INDEX 01 00:00:00
  TRACK 13 AUDIO
    TITLE "Can't Stop Loving You"
    PERFORMER "Smiley Lewis"
    REM COMPOSER ""
    INDEX 00 02:11:27
FILE "13 - Smiley Lewis - Can't Stop Loving You.wav" WAVE
    INDEX 01 00:00:00
  TRACK 14 AUDIO
    TITLE "For Cryin' Out Loud"
    PERFORMER "Huey 'Piano' Smith & His Clowns"
    REM COMPOSER ""
    INDEX 00 02:11:09
FILE "14 - Huey 'Piano' Smith & His Clowns - For Cryin' Out Loud.wav" WAVE
    INDEX 01 00:00:00
  TRACK 15 AUDIO
    TITLE "Chico"
    PERFORMER "Al Tousan"
    REM COMPOSER ""
    INDEX 00 02:27:59
FILE "15 - Al Tousan - Chico.wav" WAVE
    INDEX 01 00:00:00
  TRACK 16 AUDIO
    TITLE "Every Dog Got It's Day"
    PERFORMER "Eddie Bo"
    REM COMPOSER ""
    INDEX 00 02:15:33
FILE "16 - Eddie Bo - Every Dog Got It's Day.wav" WAVE
    INDEX 01 00:00:00
  TRACK 17 AUDIO
    TITLE "Baby Come On Home"
    PERFORMER "Calvin Spears"
    REM COMPOSER ""
    INDEX 00 02:11:63
FILE "17 - Calvin Spears - Baby Come On Home.wav" WAVE
    INDEX 01 00:00:00
  TRACK 18 AUDIO
    TITLE "Just My Baby And You"
    PERFORMER "Clarence Henry"
    REM COMPOSER ""
    INDEX 00 02:33:17
FILE "18 - Clarence Henry - Just My Baby And You.wav" WAVE
    INDEX 01 00:00:00
  TRACK 19 AUDIO
    TITLE "She's So Fine"
    PERFORMER "Big Boy Myles"
    REM COMPOSER ""
    INDEX 00 02:36:70
FILE "19 - Big Boy Myles - She's So Fine.wav" WAVE
    INDEX 01 00:00:00
  TRACK 20 AUDIO
    TITLE "Tickle Toe"
    PERFORMER "Paul Gayten"
    REM COMPOSER ""
    INDEX 00 02:31:09
FILE "20 - Paul Gayten - Tickle Toe.wav" WAVE
    INDEX 01 00:00:00
  TRACK 21 AUDIO
    TITLE "Watchdog"
    PERFORMER "Frankie Ford"
    REM COMPOSER ""
    INDEX 00 02:24:41
FILE "21 - Frankie Ford - Watchdog.wav" WAVE
    INDEX 01 00:00:00
  TRACK 22 AUDIO
    TITLE "Get Out Of My Life"
    PERFORMER "Aaron Neville"
    REM COMPOSER ""
    INDEX 00 02:03:65
FILE "22 - Aaron Neville - Get Out Of My Life.wav" WAVE
    INDEX 01 00:00:00
  TRACK 23 AUDIO
    TITLE "Can't Believe You Wanna Leave"
    PERFORMER "Little Richard"
    REM COMPOSER ""
    INDEX 00 01:59:67
FILE "23 - Little Richard - Can't Believe You Wanna Leave.wav" WAVE
    INDEX 01 00:00:00
  TRACK 24 AUDIO
    TITLE "If I Only Knew"
    PERFORMER "Professor Longhair"
    REM COMPOSER ""
    INDEX 00 02:25:54
FILE "24 - Professor Longhair - If I Only Knew.wav" WAVE
    INDEX 01 00:00:00
  TRACK 25 AUDIO
    TITLE "Carnival Time"
    PERFORMER "Al Johnson"
    REM COMPOSER ""
    INDEX 00 02:31:05
FILE "25 - Al Johnson - Carnival Time.wav" WAVE
    INDEX 01 00:00:00
Правила, инструкции, FAQ!!!
Торрент  Добавлен [11 июл 2019, 11:01] Скачать торрент Магнет ссылка
Скачать торрент
[ Размер 18.44 КБ / Просмотров 7 ]

Статус
Проверен 
 
Размер  517.44 МБ
Приватный: Нет (DHT включён)
.torrent скачан  0
Как залить торрент? | Как скачать Torrent? | Ошибка в торренте? Качайте магнет  


     Отправить личное сообщение
   
Страница 1 из 1
Показать сообщения за:  Поле сортировки  
Начать новую тему Ответить на тему


Сейчас этот форум просматривают: нет зарегистрированных пользователей и гости: 0


Вы не можете начинать темы
Вы не можете отвечать на сообщения
Вы не можете редактировать свои сообщения
Вы не можете удалять свои сообщения
Вы не можете добавлять вложения

Перейти:  
Ресурс не предоставляет электронные версии произведений, а занимается лишь коллекционированием и каталогизацией ссылок, присылаемых и публикуемых на форуме нашими читателями. Если вы являетесь правообладателем какого-либо представленного материала и не желаете чтобы ссылка на него находилась в нашем каталоге, свяжитесь с нами и мы незамедлительно удалим её. Файлы для обмена на трекере предоставлены пользователями сайта, и администрация не несёт ответственности за их содержание. Просьба не заливать файлы, защищенные авторскими правами, а также файлы нелегального содержания!
cron