Начать новую тему Ответить на тему
Статистика раздачи
Размер: 337.06 МБ | Добавлен: 23 май 2019, 20:08 | Скачали: 0
Сидеров: 0  [0 байт/сек]    Личеров: 0  [0 байт/сек]
Пред. тема | След. тема 

Автор
Сообщение

СообщениеДобавлено: 23 май 2019, 20:08 

Ответить с цитатой 

Tim Tim – Under The Sun
Жанр: Reggae, Euro House
Страна-производитель диска: Austria
Год издания диска: 1998
Издатель (лейбл): EMI Austria
Номер по каталогу: 7243 4 95196 2 6
Аудиокодек: FLAC (*.flac)
Тип рипа: image+.cue
Битрейт аудио: lossless
Продолжительность: 47:58
Источник (релизер): Audio CD
Наличие сканов в содержимом раздачи: да
Треклист:
01. Ready 4 The Island [0:03:26.29]
02. Under The Sun [0:03:27.20]
03. Smile [0:03:22.06]
04. We Can Change The World [0:03:33.00]
05. Under The Mango Tree [0:03:07.53]
06. My Dreamgirl [0:03:32.26]
07. How Do I Know It [0:03:31.06]
08. She Really Blows My Mind [0:04:00.66]
09. Ayayayoh [0:03:56.97]
10. Weep No Child [0:03:25.13]
11. One Family [0:04:08.53]
12. Child Nuh Weep (Jamaica Remix) [0:04:08.56]
13. Under The Sun (Rude House Version) [0:04:18.97]
Код:
Exact Audio Copy V0.99 prebeta 5 from 4. May 2009
EAC extraction logfile from 26. January 2012, 15:14
Tim Tim / Under The Sun
Used drive  : SONY    DVD RW DRX-S70U   Adapter: 2  ID: 0
Read mode               : Secure
Utilize accurate stream : Yes
Defeat audio cache      : Yes
Make use of C2 pointers : No
Read offset correction                      : 48
Overread into Lead-In and Lead-Out          : No
Fill up missing offset samples with silence : Yes
Delete leading and trailing silent blocks   : No
Null samples used in CRC calculations       : Yes
Used interface                              : Native Win32 interface for Win NT & 2000
Used output format : Internal WAV Routines
Sample format      : 44.100 Hz; 16 Bit; Stereo
TOC of the extracted CD
     Track |   Start  |  Length  | Start sector | End sector
    ---------------------------------------------------------
        1  |  0:00.00 |  3:26.22 |         0    |    15471
        2  |  3:26.22 |  3:27.15 |     15472    |    31011
        3  |  6:53.37 |  3:22.05 |     31012    |    46166
        4  | 10:15.42 |  3:33.00 |     46167    |    62141
        5  | 13:48.42 |  3:07.40 |     62142    |    76206
        6  | 16:56.07 |  3:32.20 |     76207    |    92126
        7  | 20:28.27 |  3:31.05 |     92127    |   107956
        8  | 23:59.32 |  4:00.50 |    107957    |   126006
        9  | 28:00.07 |  3:56.73 |    126007    |   143779
       10  | 31:57.05 |  3:25.10 |    143780    |   159164
       11  | 35:22.15 |  4:08.40 |    159165    |   177804
       12  | 39:30.55 |  4:08.42 |    177805    |   196446
       13  | 43:39.22 |  4:18.73 |    196447    |   215869
Range status and errors
Selected range
     Filename C:\Users\Fancy\Desktop\Tim Tim - Under The Sun.wav
     Peak level 100.0 %
     Range quality 100.0 %
     Test CRC D1A7A2ED
     Copy CRC D1A7A2ED
     Copy OK
No errors occurred
AccurateRip summary
Track  1  cannot be verified as accurate (confidence 2)  [D2F7630F], AccurateRip returned [2CBF9AE7]
Track  2  cannot be verified as accurate (confidence 2)  [947FF081], AccurateRip returned [0C0F42A0]
Track  3  cannot be verified as accurate (confidence 2)  [E6AF5B65], AccurateRip returned [C39E0447]
Track  4  cannot be verified as accurate (confidence 2)  [AEADABB4], AccurateRip returned [0F4C01FD]
Track  5  cannot be verified as accurate (confidence 2)  [5088FBFB], AccurateRip returned [71D2C566]
Track  6  cannot be verified as accurate (confidence 2)  [D102C831], AccurateRip returned [89C1A93C]
Track  7  cannot be verified as accurate (confidence 2)  [9DCB4998], AccurateRip returned [DED9EAC8]
Track  8  cannot be verified as accurate (confidence 2)  [FA3004CA], AccurateRip returned [B2F6E7A9]
Track  9  cannot be verified as accurate (confidence 2)  [3E6025DC], AccurateRip returned [487D1B09]
Track 10  cannot be verified as accurate (confidence 2)  [0899F0DC], AccurateRip returned [6C7B3B58]
Track 11  cannot be verified as accurate (confidence 2)  [5D4D3A9A], AccurateRip returned [B02C251E]
Track 12  cannot be verified as accurate (confidence 2)  [269C8C10], AccurateRip returned [E47E44F4]
Track 13  cannot be verified as accurate (confidence 2)  [2B1B14B7], AccurateRip returned [49FD88BF]
No tracks could be verified as accurate
You may have a different pressing from the one(s) in the database
End of status report
Код:
REM GENRE Euro-House
REM DATE 1998
REM DISCID 900B3E0D
REM COMMENT "ExactAudioCopy v0.99pb5"
PERFORMER "Tim Tim"
TITLE "Under The Sun"
FILE "Tim Tim - Under The Sun.flac" WAVE
  TRACK 01 AUDIO
    TITLE "Ready 4 The Island"
    PERFORMER "Tim Tim"
    INDEX 01 00:00:00
  TRACK 02 AUDIO
    TITLE "Under The Sun"
    PERFORMER "Tim Tim"
    INDEX 01 03:26:22
  TRACK 03 AUDIO
    TITLE "Smile"
    PERFORMER "Tim Tim"
    INDEX 01 06:53:37
  TRACK 04 AUDIO
    TITLE "We Can Change The World"
    PERFORMER "Tim Tim"
    INDEX 01 10:15:42
  TRACK 05 AUDIO
    TITLE "Under The Mango Tree"
    PERFORMER "Tim Tim"
    INDEX 01 13:48:42
  TRACK 06 AUDIO
    TITLE "My Dreamgirl"
    PERFORMER "Tim Tim"
    INDEX 01 16:56:07
  TRACK 07 AUDIO
    TITLE "How Do I Know It"
    PERFORMER "Tim Tim"
    INDEX 01 20:28:27
  TRACK 08 AUDIO
    TITLE "She Really Blows My Mind"
    PERFORMER "Tim Tim"
    INDEX 01 23:59:32
  TRACK 09 AUDIO
    TITLE "Ayayayoh"
    PERFORMER "Tim Tim"
    INDEX 01 28:00:07
  TRACK 10 AUDIO
    TITLE "Weep No Child"
    PERFORMER "Tim Tim"
    INDEX 01 31:57:05
  TRACK 11 AUDIO
    TITLE "One Family"
    PERFORMER "Tim Tim"
    INDEX 01 35:22:15
  TRACK 12 AUDIO
    TITLE "Child Nuh Weep (Jamaica Remix)"
    PERFORMER "Tim Tim"
    INDEX 01 39:30:55
  TRACK 13 AUDIO
    TITLE "Under The Sun (Rude House Version)"
    PERFORMER "Tim Tim"
    INDEX 01 43:39:22
Код:
AUDIOCHECKER v2.0 beta (build 457) - by Dester - opdester@freemail.hu
~~~~~~~~~~~~~~~~~~~~~~~~~~~~~~~~~~
Started at: Thursday, 26. 01. 2012. - 15:16.22
13 files found
01 -===- track 1 in drive HL-DT-STDVDRAM GSA-T50N
  Track ripped successfully
  Conclusion: this track is CDDA with probability 100%
  Tempfile successfully deleted.
02 -===- track 2 in drive HL-DT-STDVDRAM GSA-T50N
  Track ripped successfully
  Conclusion: this track is CDDA with probability 100%
  Tempfile successfully deleted.
03 -===- track 3 in drive HL-DT-STDVDRAM GSA-T50N
  Track ripped successfully
  Conclusion: this track is CDDA with probability 100%
  Tempfile successfully deleted.
04 -===- track 4 in drive HL-DT-STDVDRAM GSA-T50N
  Track ripped successfully
  Conclusion: this track is CDDA with probability 100%
  Tempfile successfully deleted.
05 -===- track 5 in drive HL-DT-STDVDRAM GSA-T50N
  Track ripped successfully
  Conclusion: this track is CDDA with probability 100%
  Tempfile successfully deleted.
06 -===- track 6 in drive HL-DT-STDVDRAM GSA-T50N
  Track ripped successfully
  Conclusion: this track is CDDA with probability 100%
  Tempfile successfully deleted.
07 -===- track 7 in drive HL-DT-STDVDRAM GSA-T50N
  Track ripped successfully
  Conclusion: this track is CDDA with probability 100%
  Tempfile successfully deleted.
08 -===- track 8 in drive HL-DT-STDVDRAM GSA-T50N
  Track ripped successfully
  Conclusion: this track is CDDA with probability 99%
  Tempfile successfully deleted.
09 -===- track 9 in drive HL-DT-STDVDRAM GSA-T50N
  Track ripped successfully
  Conclusion: this track is CDDA with probability 100%
  Tempfile successfully deleted.
10 -===- track 10 in drive HL-DT-STDVDRAM GSA-T50N
  Track ripped successfully
  Conclusion: this track is CDDA with probability 100%
  Tempfile successfully deleted.
11 -===- track 11 in drive HL-DT-STDVDRAM GSA-T50N
  Track ripped successfully
  Conclusion: this track is CDDA with probability 100%
  Tempfile successfully deleted.
12 -===- track 12 in drive HL-DT-STDVDRAM GSA-T50N
  Track ripped successfully
  Conclusion: this track is CDDA with probability 100%
  Tempfile successfully deleted.
13 -===- track 13 in drive HL-DT-STDVDRAM GSA-T50N
  Track ripped successfully
  Conclusion: this track is CDDA with probability 99%
  Tempfile successfully deleted.
Finished at: Thursday, 26. 01. 2012. - 15:35.49 (operation time: 0:19.27)
http://www.discogs.com/Tim-Tim-Under-The-Sun/release/2686495
http://www.youtube.com/watch?v=aMV0B5D7kgQ
http://www.youtube.com/watch?v=qBDejRxTbJ0&feature=related
Правила, инструкции, FAQ!!!
Торрент  Добавлен [23 май 2019, 20:08] Скачать торрент Магнет ссылка
Скачать торрент
[ Размер 13.99 КБ / Просмотров 5 ]

Статус
Проверен 
 
Размер  337.06 МБ
Приватный: Нет (DHT включён)
.torrent скачан  0
Как залить торрент? | Как скачать Torrent? | Ошибка в торренте? Качайте магнет  


     Отправить личное сообщение
   
Страница 1 из 1
Показать сообщения за:  Поле сортировки  
Начать новую тему Ответить на тему


Сейчас этот форум просматривают: нет зарегистрированных пользователей и гости: 0


Вы не можете начинать темы
Вы не можете отвечать на сообщения
Вы не можете редактировать свои сообщения
Вы не можете удалять свои сообщения
Вы не можете добавлять вложения

Перейти:  
Ресурс не предоставляет электронные версии произведений, а занимается лишь коллекционированием и каталогизацией ссылок, присылаемых и публикуемых на форуме нашими читателями. Если вы являетесь правообладателем какого-либо представленного материала и не желаете чтобы ссылка на него находилась в нашем каталоге, свяжитесь с нами и мы незамедлительно удалим её. Файлы для обмена на трекере предоставлены пользователями сайта, и администрация не несёт ответственности за их содержание. Просьба не заливать файлы, защищенные авторскими правами, а также файлы нелегального содержания!
cron