Начать новую тему Ответить на тему
Статистика раздачи
Размер: 305.82 МБ | Добавлен: 23 май 2019, 20:08 | Скачали: 0
Сидеров: 0  [0 байт/сек]    Личеров: 0  [0 байт/сек]
Пред. тема | След. тема 

Автор
Сообщение

СообщениеДобавлено: 23 май 2019, 20:08 

Ответить с цитатой 

Tim Tim – No Culture
Жанр: Reggae, Euro House
Страна-производитель диска: Austria
Год издания диска: 2001
Издатель (лейбл): EMI Austria
Номер по каталогу: 7243 5 34252 2 7
Аудиокодек: FLAC (*.flac)
Тип рипа: image+.cue
Битрейт аудио: lossless
Продолжительность: 41:25
Источник (релизер): Audio CD
Наличие сканов в содержимом раздачи: да
Треклист:
01. Intro [0:00:51.69]
02. Gimme Gimme [0:04:25.00]
03. Singalongsong [0:03:04.97]
04. Summer Love [0:02:58.60]
05. No Culture [0:03:12.13]
06. The Old Man And A Bottle Of Wine [0:03:32.20]
07. Love Again [0:03:44.40]
08. Ska-Ndal Inna Jungle [0:03:16.20]
09. Whatchagonnado [0:03:10.60]
10. Jambo Jambo [0:03:07.22]
11. Do You Love Me [0:03:19.84]
12. Splash [0:03:13.00]
13. Man And Woman [0:03:06.46]
14. Outro [0:00:23.16]
Код:
Exact Audio Copy V0.99 prebeta 5 from 4. May 2009
EAC extraction logfile from 16. February 2012, 19:14
Tim Tim / No Culture
Used drive  : SONY    DVD RW DRX-S70U   Adapter: 2  ID: 0
Read mode               : Secure
Utilize accurate stream : Yes
Defeat audio cache      : Yes
Make use of C2 pointers : No
Read offset correction                      : 48
Overread into Lead-In and Lead-Out          : No
Fill up missing offset samples with silence : Yes
Delete leading and trailing silent blocks   : No
Null samples used in CRC calculations       : Yes
Used interface                              : Native Win32 interface for Win NT & 2000
Used output format : Internal WAV Routines
Sample format      : 44.100 Hz; 16 Bit; Stereo
TOC of the extracted CD
     Track |   Start  |  Length  | Start sector | End sector
    ---------------------------------------------------------
        1  |  0:00.00 |  0:51.52 |         0    |     3876
        2  |  0:51.52 |  4:25.00 |      3877    |    23751
        3  |  5:16.52 |  3:04.73 |     23752    |    37624
        4  |  8:21.50 |  2:58.45 |     37625    |    51019
        5  | 11:20.20 |  3:12.10 |     51020    |    65429
        6  | 14:32.30 |  3:32.15 |     65430    |    81344
        7  | 18:04.45 |  3:44.30 |     81345    |    98174
        8  | 21:49.00 |  3:16.15 |     98175    |   112889
        9  | 25:05.15 |  3:10.45 |    112890    |   127184
       10  | 28:15.60 |  3:07.17 |    127185    |   141226
       11  | 31:23.02 |  3:19.63 |    141227    |   156214
       12  | 34:42.65 |  3:13.00 |    156215    |   170689
       13  | 37:55.65 |  3:06.35 |    170690    |   184674
       14  | 41:02.25 |  0:23.12 |    184675    |   186411
Range status and errors
Selected range
     Filename C:\Users\Fancy\Desktop\Tim Tim - No Culture.wav
     Peak level 99.5 %
     Range quality 99.9 %
     Test CRC 5897F9EC
     Copy CRC 5897F9EC
     Copy OK
No errors occurred
AccurateRip summary
Track  1  not present in database
Track  2  not present in database
Track  3  not present in database
Track  4  not present in database
Track  5  not present in database
Track  6  not present in database
Track  7  not present in database
Track  8  not present in database
Track  9  not present in database
Track 10  not present in database
Track 11  not present in database
Track 12  not present in database
Track 13  not present in database
Track 14  not present in database
None of the tracks are present in the AccurateRip database
End of status report
Код:
REM GENRE Euro-House
REM DATE 2001
REM DISCID C009B50E
REM COMMENT "ExactAudioCopy v0.99pb5"
PERFORMER "Tim Tim"
TITLE "No Culture"
FILE "Tim Tim - No Culture.flac" WAVE
  TRACK 01 AUDIO
    TITLE "Intro"
    PERFORMER "Tim Tim"
    INDEX 01 00:00:00
  TRACK 02 AUDIO
    TITLE "Gimme Gimme"
    PERFORMER "Tim Tim"
    INDEX 01 00:51:52
  TRACK 03 AUDIO
    TITLE "Singalongsong"
    PERFORMER "Tim Tim"
    INDEX 01 05:16:52
  TRACK 04 AUDIO
    TITLE "Summer Love"
    PERFORMER "Tim Tim"
    INDEX 01 08:21:50
  TRACK 05 AUDIO
    TITLE "No Culture"
    PERFORMER "Tim Tim"
    INDEX 01 11:20:20
  TRACK 06 AUDIO
    TITLE "The Old Man And A Bottle Of Wine"
    PERFORMER "Tim Tim"
    INDEX 01 14:32:30
  TRACK 07 AUDIO
    TITLE "Love Again"
    PERFORMER "Tim Tim"
    INDEX 01 18:04:45
  TRACK 08 AUDIO
    TITLE "Ska-Ndal Inna Jungle"
    PERFORMER "Tim Tim"
    INDEX 01 21:49:00
  TRACK 09 AUDIO
    TITLE "Whatchagonnado"
    PERFORMER "Tim Tim"
    INDEX 01 25:05:15
  TRACK 10 AUDIO
    TITLE "Jambo Jambo"
    PERFORMER "Tim Tim"
    INDEX 01 28:15:60
  TRACK 11 AUDIO
    TITLE "Do You Love Me"
    PERFORMER "Tim Tim"
    INDEX 01 31:23:02
  TRACK 12 AUDIO
    TITLE "Splash"
    PERFORMER "Tim Tim"
    INDEX 01 34:42:65
  TRACK 13 AUDIO
    TITLE "Man And Woman"
    PERFORMER "Tim Tim"
    INDEX 01 37:55:65
  TRACK 14 AUDIO
    TITLE "Outro"
    PERFORMER "Tim Tim"
    INDEX 01 41:02:25
Код:
AUDIOCHECKER v2.0 beta (build 457) - by Dester - opdester@freemail.hu
~~~~~~~~~~~~~~~~~~~~~~~~~~~~~~~~~~
-----------------------------------------------------------
Started at: Thursday, 16. 02. 2012. - 19:17.26
14 files found
01 -===- track 1 in drive HL-DT-STDVDRAM GSA-T50N
  Track ripped successfully
  Conclusion: this track is CDDA with probability 100%
  Tempfile successfully deleted.
02 -===- track 2 in drive HL-DT-STDVDRAM GSA-T50N
  Track ripped successfully
  Conclusion: this track is CDDA with probability 100%
  Tempfile successfully deleted.
03 -===- track 3 in drive HL-DT-STDVDRAM GSA-T50N
  Track ripped successfully
  Conclusion: this track is CDDA with probability 100%
  Tempfile successfully deleted.
04 -===- track 4 in drive HL-DT-STDVDRAM GSA-T50N
  Track ripped successfully
  Conclusion: this track is CDDA with probability 100%
  Tempfile successfully deleted.
05 -===- track 5 in drive HL-DT-STDVDRAM GSA-T50N
  Track ripped successfully
  Conclusion: this track is CDDA with probability 100%
  Tempfile successfully deleted.
06 -===- track 6 in drive HL-DT-STDVDRAM GSA-T50N
  Track ripped successfully
  Conclusion: this track is CDDA with probability 100%
  Tempfile successfully deleted.
07 -===- track 7 in drive HL-DT-STDVDRAM GSA-T50N
  Track ripped successfully
  Conclusion: this track is CDDA with probability 100%
  Tempfile successfully deleted.
08 -===- track 8 in drive HL-DT-STDVDRAM GSA-T50N
  Track ripped successfully
  Conclusion: this track is CDDA with probability 100%
  Tempfile successfully deleted.
09 -===- track 9 in drive HL-DT-STDVDRAM GSA-T50N
  Track ripped successfully
  Conclusion: this track is CDDA with probability 100%
  Tempfile successfully deleted.
10 -===- track 10 in drive HL-DT-STDVDRAM GSA-T50N
  Track ripped successfully
  Conclusion: this track is CDDA with probability 100%
  Tempfile successfully deleted.
11 -===- track 11 in drive HL-DT-STDVDRAM GSA-T50N
  Track ripped successfully
  Conclusion: this track is CDDA with probability 100%
  Tempfile successfully deleted.
12 -===- track 12 in drive HL-DT-STDVDRAM GSA-T50N
  Track ripped successfully
  Conclusion: this track is CDDA with probability 100%
  Tempfile successfully deleted.
13 -===- track 13 in drive HL-DT-STDVDRAM GSA-T50N
  Track ripped successfully
  Conclusion: this track is CDDA with probability 99%
  Tempfile successfully deleted.
14 -===- track 14 in drive HL-DT-STDVDRAM GSA-T50N
  Track ripped successfully
  Conclusion: this track is CDDA with probability 100%
  Tempfile successfully deleted.
Finished at: Thursday, 16. 02. 2012. - 19:34.55 (operation time: 0:17.29)
http://www.discogs.com/Tim-Tim-No-Culture/release/2686623
Правила, инструкции, FAQ!!!
Торрент  Добавлен [23 май 2019, 20:08] Скачать торрент Магнет ссылка
Скачать торрент
[ Размер 12.71 КБ / Просмотров 2 ]

Статус
Проверен 
 
Размер  305.82 МБ
Приватный: Нет (DHT включён)
.torrent скачан  0
Как залить торрент? | Как скачать Torrent? | Ошибка в торренте? Качайте магнет  


     Отправить личное сообщение
   
Страница 1 из 1
Показать сообщения за:  Поле сортировки  
Начать новую тему Ответить на тему


Сейчас этот форум просматривают: нет зарегистрированных пользователей и гости: 0


Вы не можете начинать темы
Вы не можете отвечать на сообщения
Вы не можете редактировать свои сообщения
Вы не можете удалять свои сообщения
Вы не можете добавлять вложения

Перейти:  
Ресурс не предоставляет электронные версии произведений, а занимается лишь коллекционированием и каталогизацией ссылок, присылаемых и публикуемых на форуме нашими читателями. Если вы являетесь правообладателем какого-либо представленного материала и не желаете чтобы ссылка на него находилась в нашем каталоге, свяжитесь с нами и мы незамедлительно удалим её. Файлы для обмена на трекере предоставлены пользователями сайта, и администрация не несёт ответственности за их содержание. Просьба не заливать файлы, защищенные авторскими правами, а также файлы нелегального содержания!
cron