Начать новую тему Ответить на тему
Статистика раздачи
Размер: 307.05 МБ | Добавлен: 11 июл 2019, 11:58 | Скачали: 0
Сидеров: 6  [0 байт/сек]    Личеров: 2  [0 байт/сек]
Пред. тема | След. тема 

Автор
Сообщение

СообщениеДобавлено: 11 июл 2019, 11:58 

Ответить с цитатой 

Zodiac (Зодиак) / Dedication
Жанр: Progressive Electronic, New Age
Носитель: CD
Год издания: 1996 (2005)
Издатель (лейбл): Microphone Records
Номер по каталогу: MRCD 063
Страна исполнителя (группы): Latvia
Аудиокодек: FLAC (*.flac)
Тип рипа: tracks
Продолжительность: 42:33
Источник: собственный рип
Наличие сканов в содержимом раздачи: да
Треклист:
1. In Memoriam (4:55)
2. Kurzeme (4:14)
3. Moricsala (3:57)
4. Dedication (4:02)
5. Palace of Rundale (3:54)
6. Open Air Museum (5:22)
7. Game (2:34)
8. The Old Riga Houses (4:35)
9. Pastorale (3:30)
10. Blue Mountain (5:25)
Код:
Exact Audio Copy V1.0 beta 3 from 29. August 2011
EAC extraction logfile from 15. January 2017, 14:00
Zodiac / Dedication
Used drive  : PLEXTOR DVDR   PX-760A   Adapter: 0  ID: 0
Read mode               : Secure
Utilize accurate stream : Yes
Defeat audio cache      : Yes
Make use of C2 pointers : No
Read offset correction                      : 30
Overread into Lead-In and Lead-Out          : Yes
Fill up missing offset samples with silence : Yes
Delete leading and trailing silent blocks   : No
Null samples used in CRC calculations       : Yes
Used interface                              : Installed external ASPI interface
Gap handling                                : Appended to previous track
Used output format              : User Defined Encoder
Selected bitrate                : 1024 kBit/s
Quality                         : High
Add ID3 tag                     : No
Command line compressor         : d:\apps\flac.exe
Additional command line options : -8 -P 1024 -T "ARTIST=%artist%" -T "TITLE=%title%" -T "ALBUM=%albumtitle%" -T "DATE=%year%" -T "TRACKNUMBER=%tracknr%" -T "GENRE=%genre%" -T "COMPOSER=%composer%" -T "ALBUM ARTIST=%albumartist%" -T "DISCNUMBER=%cdnumber%" -T "TOTALDISCS=%totalcds%" %source% -o %dest%
TOC of the extracted CD
     Track |   Start  |  Length  | Start sector | End sector
    ---------------------------------------------------------
        1  |  0:00.00 |  4:55.25 |         0    |    22149
        2  |  4:55.25 |  4:14.55 |     22150    |    41254
        3  |  9:10.05 |  3:57.35 |     41255    |    59064
        4  | 13:07.40 |  4:02.50 |     59065    |    77264
        5  | 17:10.15 |  3:54.15 |     77265    |    94829
        6  | 21:04.30 |  5:22.60 |     94830    |   119039
        7  | 26:27.15 |  2:34.55 |    119040    |   130644
        8  | 29:01.70 |  4:35.10 |    130645    |   151279
        9  | 33:37.05 |  3:30.25 |    151280    |   167054
       10  | 37:07.30 |  5:25.60 |    167055    |   191489
Track  1
     Filename T:\working\Zodiac - [1996] Dedication {MRCD 063}\01 - In Memoriam.wav
     Pre-gap length  0:00:02.00
     Peak level 92.7 %
     Extraction speed 2.2 X
     Track quality 100.0 %
     Test CRC F0E4DAFE
     Copy CRC F0E4DAFE
     Accurately ripped (confidence 1)  [F83FAA1C]  (AR v1)
     Copy OK
Track  2
     Filename T:\working\Zodiac - [1996] Dedication {MRCD 063}\02 - Kurzeme.wav
     Peak level 97.9 %
     Extraction speed 2.2 X
     Track quality 100.0 %
     Test CRC 2469F979
     Copy CRC 2469F979
     Accurately ripped (confidence 1)  [34EF3A88]  (AR v1)
     Copy OK
Track  3
     Filename T:\working\Zodiac - [1996] Dedication {MRCD 063}\03 - Moricsala.wav
     Pre-gap length  0:00:03.00
     Peak level 96.0 %
     Extraction speed 2.1 X
     Track quality 100.0 %
     Test CRC 20C9AA94
     Copy CRC 20C9AA94
     Accurately ripped (confidence 1)  [AB816B03]  (AR v1)
     Copy OK
Track  4
     Filename T:\working\Zodiac - [1996] Dedication {MRCD 063}\04 - Dedication.wav
     Pre-gap length  0:00:02.65
     Peak level 97.9 %
     Extraction speed 1.9 X
     Track quality 99.9 %
     Test CRC E733B15F
     Copy CRC E733B15F
     Accurately ripped (confidence 1)  [89067DE8]  (AR v1)
     Copy OK
Track  5
     Filename T:\working\Zodiac - [1996] Dedication {MRCD 063}\05 - Palace of Rundale.wav
     Pre-gap length  0:00:03.25
     Peak level 97.9 %
     Extraction speed 2.1 X
     Track quality 100.0 %
     Test CRC A20B13A2
     Copy CRC A20B13A2
     Accurately ripped (confidence 1)  [23208B24]  (AR v1)
     Copy OK
Track  6
     Filename T:\working\Zodiac - [1996] Dedication {MRCD 063}\06 - Open Air Museum.wav
     Pre-gap length  0:00:02.25
     Peak level 97.9 %
     Extraction speed 2.2 X
     Track quality 100.0 %
     Test CRC B2A9D691
     Copy CRC B2A9D691
     Accurately ripped (confidence 1)  [40BDA49C]  (AR v1)
     Copy OK
Track  7
     Filename T:\working\Zodiac - [1996] Dedication {MRCD 063}\07 - Game.wav
     Pre-gap length  0:00:03.30
     Peak level 97.2 %
     Extraction speed 2.0 X
     Track quality 100.0 %
     Test CRC 9DE6137A
     Copy CRC 9DE6137A
     Accurately ripped (confidence 1)  [F114AC67]  (AR v1)
     Copy OK
Track  8
     Filename T:\working\Zodiac - [1996] Dedication {MRCD 063}\08 - The Old Riga Houses.wav
     Pre-gap length  0:00:03.00
     Peak level 97.9 %
     Extraction speed 2.2 X
     Track quality 100.0 %
     Test CRC 5EB74892
     Copy CRC 5EB74892
     Accurately ripped (confidence 1)  [B8FE9908]  (AR v1)
     Copy OK
Track  9
     Filename T:\working\Zodiac - [1996] Dedication {MRCD 063}\09 - Pastorale.wav
     Pre-gap length  0:00:02.15
     Peak level 97.9 %
     Extraction speed 2.1 X
     Track quality 100.0 %
     Test CRC CEF3A211
     Copy CRC CEF3A211
     Accurately ripped (confidence 1)  [16045EC6]  (AR v1)
     Copy OK
Track 10
     Filename T:\working\Zodiac - [1996] Dedication {MRCD 063}\10 - Blue Mountain.wav
     Pre-gap length  0:00:02.45
     Peak level 97.9 %
     Extraction speed 2.4 X
     Track quality 100.0 %
     Test CRC 63ECFAF1
     Copy CRC 63ECFAF1
     Accurately ripped (confidence 1)  [D5187F45]  (AR v1)
     Copy OK
All tracks accurately ripped
No errors occurred
End of status report
---- CUETools DB Plugin V2.1.3
[CTDB TOCID: w7A4n3D2PSdijX7PSf3ItrWoOYM-] found, Submit result: w7A4n3D2PSdijX7PSf3ItrWoOYM- has been confirmed
[de38d4a3] (3/3) Accurately ripped
==== Log checksum 38C1E43B968ED6946AE376FA4CBFA5B2ACE2A9174F142F9B94B7BBF9AD65B79E ====
Код:
REM GENRE Rock
REM DATE 1996
REM DISCID 8E09F90A
REM COMMENT "ExactAudioCopy v1.0b3"
PERFORMER "Zodiac"
TITLE "Dedication"
FILE "01 - In Memoriam.wav" WAVE
  TRACK 01 AUDIO
    TITLE "In Memoriam"
    PERFORMER "Zodiac"
    INDEX 01 00:00:00
FILE "02 - Kurzeme.wav" WAVE
  TRACK 02 AUDIO
    TITLE "Kurzeme"
    PERFORMER "Zodiac"
    INDEX 01 00:00:00
  TRACK 03 AUDIO
    TITLE "Moricsala"
    PERFORMER "Zodiac"
    INDEX 00 04:11:55
FILE "03 - Moricsala.wav" WAVE
    INDEX 01 00:00:00
  TRACK 04 AUDIO
    TITLE "Dedication"
    PERFORMER "Zodiac"
    INDEX 00 03:54:45
FILE "04 - Dedication.wav" WAVE
    INDEX 01 00:00:00
  TRACK 05 AUDIO
    TITLE "Palace of Rundale"
    PERFORMER "Zodiac"
    INDEX 00 03:59:25
FILE "05 - Palace of Rundale.wav" WAVE
    INDEX 01 00:00:00
  TRACK 06 AUDIO
    TITLE "Open Air Museum"
    PERFORMER "Zodiac"
    INDEX 00 03:51:65
FILE "06 - Open Air Museum.wav" WAVE
    INDEX 01 00:00:00
  TRACK 07 AUDIO
    TITLE "Game"
    PERFORMER "Zodiac"
    INDEX 00 05:19:30
FILE "07 - Game.wav" WAVE
    INDEX 01 00:00:00
  TRACK 08 AUDIO
    TITLE "The Old Riga Houses"
    PERFORMER "Zodiac"
    INDEX 00 02:31:55
FILE "08 - The Old Riga Houses.wav" WAVE
    INDEX 01 00:00:00
  TRACK 09 AUDIO
    TITLE "Pastorale"
    PERFORMER "Zodiac"
    INDEX 00 04:32:70
FILE "09 - Pastorale.wav" WAVE
    INDEX 01 00:00:00
  TRACK 10 AUDIO
    TITLE "Blue Mountain"
    PERFORMER "Zodiac"
    INDEX 00 03:27:55
FILE "10 - Blue Mountain.wav" WAVE
    INDEX 01 00:00:00
Код:
AUDIOCHECKER v2.0 beta (build 457) - by Dester - opdester@freemail.hu
~~~~~~~~~~~~~~~~~~~~~~~~~~~~~~~~~~
-=== DO NOT EDIT THIS FILE! ===-
Path: ...\Zodiac - [1996] Dedication
01 -=- 01 - In Memoriam.flac -=- CDDA (100%)
02 -=- 02 - Kurzeme.flac -=- CDDA (100%)
03 -=- 03 - Moricsala.flac -=- CDDA (100%)
04 -=- 04 - Dedication.flac -=- CDDA (100%)
05 -=- 05 - Palace of Rundale.flac -=- CDDA (100%)
06 -=- 06 - Open Air Museum.flac -=- CDDA (99%)
07 -=- 07 - Game.flac -=- CDDA (100%)
08 -=- 08 - The Old Riga Houses.flac -=- CDDA (100%)
09 -=- 09 - Pastorale.flac -=- CDDA (99%)
10 -=- 10 - Blue Mountain.flac -=- CDDA (100%)
Summary 99.80% CDDA
89868788
Код:
[CUETools log; Date: 2018-10-05 09:13:57; Version: 2.1.4]
[CTDB TOCID: w7A4n3D2PSdijX7PSf3ItrWoOYM-] found.
Track | CTDB Status
  1   | (6/6) Accurately ripped
  2   | (6/6) Accurately ripped
  3   | (6/6) Accurately ripped
  4   | (6/6) Accurately ripped
  5   | (6/6) Accurately ripped
  6   | (6/6) Accurately ripped
  7   | (6/6) Accurately ripped
  8   | (6/6) Accurately ripped
  9   | (6/6) Accurately ripped
 10   | (6/6) Accurately ripped
[AccurateRip ID: 0010157b-007fd0d3-8e09f90a] found.
Track   [  CRC   |   V2   ] Status
 01     [f83faa1c|5fdf1ba3] (0+2/4) Accurately ripped
 02     [34ef3a88|499b97dc] (0+2/4) Accurately ripped
 03     [ab816b03|65ae6495] (0+2/4) Accurately ripped
 04     [89067de8|51a8a330] (0+2/4) Accurately ripped
 05     [23208b24|21162e4e] (0+2/4) Accurately ripped
 06     [40bda49c|5e09f9c0] (0+2/4) Accurately ripped
 07     [f114ac67|278f85a6] (0+2/4) Accurately ripped
 08     [b8fe9908|b23d0ca3] (0+2/4) Accurately ripped
 09     [16045ec6|eecc5fa7] (0+2/4) Accurately ripped
 10     [d5187f45|a8cc3bb1] (0+2/4) Accurately ripped
Offsetted by 664:
 01     [fb151dd4] (0/4) No match (V2 was not tested)
 02     [e4d971e8] (0/4) No match (V2 was not tested)
 03     [3b58b40b] (0/4) No match (V2 was not tested)
 04     [408d7080] (0/4) No match (V2 was not tested)
 05     [3e5b09c4] (0/4) No match (V2 was not tested)
 06     [fe116bd4] (0/4) No match (V2 was not tested)
 07     [e4654607] (0/4) No match (V2 was not tested)
 08     [dc9de888] (0/4) No match (V2 was not tested)
 09     [00ebb28e] (0/4) No match (V2 was not tested)
 10     [643c7855] (0/4) No match (V2 was not tested)
Track Peak [ CRC32  ] [W/O NULL] [  LOG   ]
 --   97.9 [EE76A224] [946033A0]
 01   92.7 [F0E4DAFE] [6ACABA7A]   CRC32
 02   97.9 [2469F979] [9E11302B]   CRC32
 03   96.0 [20C9AA94] [F68E67F3]   CRC32
 04   97.9 [E733B15F] [76B3C1BA]   CRC32
 05   97.9 [A20B13A2] [44ADD6F4]   CRC32
 06   97.9 [B2A9D691] [2C51504C]   CRC32
 07   97.2 [9DE6137A] [7FB375EB]   CRC32
 08   97.9 [5EB74892] [68753BCF]   CRC32
 09   97.9 [CEF3A211] [61B179F0]   CRC32
 10   97.9 [63ECFAF1] [A17D85B2]   CRC32
Диск содержит два бонус-трека "Dedication" и "Game", но у них (и только) завышенная громкость. Можно привести в слушаемость при помощи деклиппера. В раздаче оригинал, прямо с диска.
Переиздание альбома In Memoriam.
Правила, инструкции, FAQ!!!
Торрент  Добавлен [11 июл 2019, 11:58] Скачать торрент Магнет ссылка
Скачать торрент
[ Размер 7.42 КБ / Просмотров 3 ]

Статус
Проверен 
 
Размер  307.05 МБ
Приватный: Нет (DHT включён)
.torrent скачан  0
Как залить торрент? | Как скачать Torrent? | Ошибка в торренте? Качайте магнет  


     Отправить личное сообщение
   
Страница 1 из 1
Показать сообщения за:  Поле сортировки  
Начать новую тему Ответить на тему


Сейчас этот форум просматривают: нет зарегистрированных пользователей и гости: 0


Вы не можете начинать темы
Вы не можете отвечать на сообщения
Вы не можете редактировать свои сообщения
Вы не можете удалять свои сообщения
Вы не можете добавлять вложения

Перейти:  
Ресурс не предоставляет электронные версии произведений, а занимается лишь коллекционированием и каталогизацией ссылок, присылаемых и публикуемых на форуме нашими читателями. Если вы являетесь правообладателем какого-либо представленного материала и не желаете чтобы ссылка на него находилась в нашем каталоге, свяжитесь с нами и мы незамедлительно удалим её. Файлы для обмена на трекере предоставлены пользователями сайта, и администрация не несёт ответственности за их содержание. Просьба не заливать файлы, защищенные авторскими правами, а также файлы нелегального содержания!
cron