Начать новую тему Ответить на тему
Статистика раздачи
Размер: 160.33 МБ | Добавлен: 12 июн 2019, 00:23 | Скачали: 0
Сидеров: 1  [0 байт/сек]    Личеров: 0  [0 байт/сек]
Пред. тема | След. тема 

Автор
Сообщение

СообщениеДобавлено: 12 июн 2019, 00:23 

Ответить с цитатой 

Prince - Originals (2019) Anthology

Жанр: Pop, Rock, Funk
Издание:NPG Records / Warner Records / 603497851775
Продолжительность: 01:03:51

Кодек: MP3
Битрейт: 320 Kbps

Треклист:
01. Sex Shooter
02. Jungle Love
03. Manic Monday
04. Noon Rendezvous
05. Make-Up
06. 100 Mph
07. You're My Love
08. Holly Rock
09. Baby, You're a Trip
10. The Glamorous Life
11. Gigolos Get Lonely Too
12. Love... Thy Will Be Done
13. Dear Michaelangelo
14. Wouldn't You Love to Love Me?
15. Nothing Compares 2 U
Код:
General
Complete name                            : C:\Prince - Originals - 2019 (320 kbps)\01. Sex Shooter.mp3
Format                                   : MPEG Audio
File size                                : 7.18 MiB
Duration                                 : 3 min 6 s
Overall bit rate mode                    : Constant
Overall bit rate                         : 320 kb/s
Album                                    : Originals
Album/Performer                          : Prince
Track name                               : Sex Shooter
Track name/Position                      : 1
Performer                                : Prince
Publisher                                : NPG Records, Inc. / Warner Records Inc.
Genre                                    : Pop / Rock / Funk
Recorded date                            : 2019
Writing library                          : LAME3.100
Cover                                    : Yes
Cover type                               : Cover (front)
Cover MIME                               : image/jpeg
Comment                                  : LOSSLESSBEST RELEASES: Visit site [url=https://flacmania.ru/]https://flacmania.ru/[/url]

Audio
Format                                   : MPEG Audio
Format version                           : Version 1
Format profile                           : Layer 3
Format settings                          : Joint stereo
Duration                                 : 3 min 6 s
Bit rate mode                            : Constant
Bit rate                                 : 320 kb/s
Channel(s)                               : 2 channels
Sampling rate                            : 44.1 kHz
Frame rate                               : 38.281 FPS (1152 SPF)
Compression mode                         : Lossy
Stream size                              : 7.10 MiB (99%)
Writing library                          : LAME3.100
Encoding settings                        : -m j -V 4 -q 0 -lowpass 20.5

General
Complete name                            : C:\Prince - Originals - 2019 (320 kbps)\02. Jungle Love.mp3
Format                                   : MPEG Audio
File size                                : 7.09 MiB
Duration                                 : 3 min 3 s
Overall bit rate mode                    : Constant
Overall bit rate                         : 320 kb/s
Album                                    : Originals
Album/Performer                          : Prince
Track name                               : Jungle Love
Track name/Position                      : 2
Performer                                : Prince
Publisher                                : NPG Records, Inc. / Warner Records Inc.
Genre                                    : Pop / Rock / Funk
Recorded date                            : 2019
Writing library                          : LAME3.100
Cover                                    : Yes
Cover type                               : Cover (front)
Cover MIME                               : image/jpeg
Comment                                  : LOSSLESSBEST RELEASES: Visit site [url=https://flacmania.ru/]https://flacmania.ru/[/url]

Audio
Format                                   : MPEG Audio
Format version                           : Version 1
Format profile                           : Layer 3
Format settings                          : Joint stereo
Duration                                 : 3 min 3 s
Bit rate mode                            : Constant
Bit rate                                 : 320 kb/s
Channel(s)                               : 2 channels
Sampling rate                            : 44.1 kHz
Frame rate                               : 38.281 FPS (1152 SPF)
Compression mode                         : Lossy
Stream size                              : 7.01 MiB (99%)
Writing library                          : LAME3.100
Encoding settings                        : -m j -V 4 -q 0 -lowpass 20.5

General
Complete name                            : C:\Prince - Originals - 2019 (320 kbps)\03. Manic Monday.mp3
Format                                   : MPEG Audio
File size                                : 6.61 MiB
Duration                                 : 2 min 51 s
Overall bit rate mode                    : Constant
Overall bit rate                         : 320 kb/s
Album                                    : Originals
Album/Performer                          : Prince
Track name                               : Manic Monday
Track name/Position                      : 3
Performer                                : Prince
Publisher                                : NPG Records, Inc. / Warner Records Inc.
Genre                                    : Pop / Rock / Funk
Recorded date                            : 2019
Writing library                          : LAME3.100
Cover                                    : Yes
Cover type                               : Cover (front)
Cover MIME                               : image/jpeg
Comment                                  : LOSSLESSBEST RELEASES: Visit site [url=https://flacmania.ru/]https://flacmania.ru/[/url]

Audio
Format                                   : MPEG Audio
Format version                           : Version 1
Format profile                           : Layer 3
Format settings                          : Joint stereo / MS Stereo
Duration                                 : 2 min 51 s
Bit rate mode                            : Constant
Bit rate                                 : 320 kb/s
Channel(s)                               : 2 channels
Sampling rate                            : 44.1 kHz
Frame rate                               : 38.281 FPS (1152 SPF)
Compression mode                         : Lossy
Stream size                              : 6.53 MiB (99%)
Writing library                          : LAME3.100
Encoding settings                        : -m j -V 4 -q 0 -lowpass 20.5

General
Complete name                            : C:\Prince - Originals - 2019 (320 kbps)\04. Noon Rendezvous.mp3
Format                                   : MPEG Audio
File size                                : 6.97 MiB
Duration                                 : 3 min 0 s
Overall bit rate mode                    : Constant
Overall bit rate                         : 320 kb/s
Album                                    : Originals
Album/Performer                          : Prince
Track name                               : Noon Rendezvous
Track name/Position                      : 4
Performer                                : Prince
Publisher                                : NPG Records, Inc. / Warner Records Inc.
Genre                                    : Pop / Rock / Funk
Recorded date                            : 2019
Writing library                          : LAME3.100
Cover                                    : Yes
Cover type                               : Cover (front)
Cover MIME                               : image/jpeg
Comment                                  : LOSSLESSBEST RELEASES: Visit site [url=https://flacmania.ru/]https://flacmania.ru/[/url]

Audio
Format                                   : MPEG Audio
Format version                           : Version 1
Format profile                           : Layer 3
Format settings                          : Joint stereo / MS Stereo
Duration                                 : 3 min 0 s
Bit rate mode                            : Constant
Bit rate                                 : 320 kb/s
Channel(s)                               : 2 channels
Sampling rate                            : 44.1 kHz
Frame rate                               : 38.281 FPS (1152 SPF)
Compression mode                         : Lossy
Stream size                              : 6.89 MiB (99%)
Writing library                          : LAME3.100
Encoding settings                        : -m j -V 4 -q 0 -lowpass 20.5

General
Complete name                            : C:\Prince - Originals - 2019 (320 kbps)\05. Make-Up.mp3
Format                                   : MPEG Audio
File size                                : 5.69 MiB
Duration                                 : 2 min 26 s
Overall bit rate mode                    : Constant
Overall bit rate                         : 320 kb/s
Album                                    : Originals
Album/Performer                          : Prince
Track name                               : Make-Up
Track name/Position                      : 5
Performer                                : Prince
Publisher                                : NPG Records, Inc. / Warner Records Inc.
Genre                                    : Pop / Rock / Funk
Recorded date                            : 2019
Writing library                          : LAME3.100
Cover                                    : Yes
Cover type                               : Cover (front)
Cover MIME                               : image/jpeg
Comment                                  : LOSSLESSBEST RELEASES: Visit site [url=https://flacmania.ru/]https://flacmania.ru/[/url]

Audio
Format                                   : MPEG Audio
Format version                           : Version 1
Format profile                           : Layer 3
Format settings                          : Joint stereo / MS Stereo
Duration                                 : 2 min 26 s
Bit rate mode                            : Constant
Bit rate                                 : 320 kb/s
Channel(s)                               : 2 channels
Sampling rate                            : 44.1 kHz
Frame rate                               : 38.281 FPS (1152 SPF)
Compression mode                         : Lossy
Stream size                              : 5.61 MiB (99%)
Writing library                          : LAME3.100
Encoding settings                        : -m j -V 4 -q 0 -lowpass 20.5

General
Complete name                            : C:\Prince - Originals - 2019 (320 kbps)\06. 100 MPH.mp3
Format                                   : MPEG Audio
File size                                : 8.11 MiB
Duration                                 : 3 min 30 s
Overall bit rate mode                    : Constant
Overall bit rate                         : 320 kb/s
Album                                    : Originals
Album/Performer                          : Prince
Track name                               : 100 MPH
Track name/Position                      : 6
Performer                                : Prince
Publisher                                : NPG Records, Inc. / Warner Records Inc.
Genre                                    : Pop / Rock / Funk
Recorded date                            : 2019
Writing library                          : LAME3.100
Cover                                    : Yes
Cover type                               : Cover (front)
Cover MIME                               : image/jpeg
Comment                                  : LOSSLESSBEST RELEASES: Visit site [url=https://flacmania.ru/]https://flacmania.ru/[/url]

Audio
Format                                   : MPEG Audio
Format version                           : Version 1
Format profile                           : Layer 3
Format settings                          : Joint stereo / MS Stereo
Duration                                 : 3 min 30 s
Bit rate mode                            : Constant
Bit rate                                 : 320 kb/s
Channel(s)                               : 2 channels
Sampling rate                            : 44.1 kHz
Frame rate                               : 38.281 FPS (1152 SPF)
Compression mode                         : Lossy
Stream size                              : 8.03 MiB (99%)
Writing library                          : LAME3.100
Encoding settings                        : -m j -V 4 -q 0 -lowpass 20.5

General
Complete name                            : C:\Prince - Originals - 2019 (320 kbps)\07. You're My Love.mp3
Format                                   : MPEG Audio
File size                                : 10.1 MiB
Duration                                 : 4 min 23 s
Overall bit rate mode                    : Constant
Overall bit rate                         : 320 kb/s
Album                                    : Originals
Album/Performer                          : Prince
Track name                               : You're My Love
Track name/Position                      : 7
Performer                                : Prince
Publisher                                : NPG Records, Inc. / Warner Records Inc.
Genre                                    : Pop / Rock / Funk
Recorded date                            : 2019
Writing library                          : LAME3.100
Cover                                    : Yes
Cover type                               : Cover (front)
Cover MIME                               : image/jpeg
Comment                                  : LOSSLESSBEST RELEASES: Visit site [url=https://flacmania.ru/]https://flacmania.ru/[/url]

Audio
Format                                   : MPEG Audio
Format version                           : Version 1
Format profile                           : Layer 3
Format settings                          : Joint stereo
Duration                                 : 4 min 23 s
Bit rate mode                            : Constant
Bit rate                                 : 320 kb/s
Channel(s)                               : 2 channels
Sampling rate                            : 44.1 kHz
Frame rate                               : 38.281 FPS (1152 SPF)
Compression mode                         : Lossy
Stream size                              : 10.1 MiB (99%)
Writing library                          : LAME3.100
Encoding settings                        : -m j -V 4 -q 0 -lowpass 20.5

General
Complete name                            : C:\Prince - Originals - 2019 (320 kbps)\08. Holly Rock.mp3
Format                                   : MPEG Audio
File size                                : 15.3 MiB
Duration                                 : 6 min 38 s
Overall bit rate mode                    : Constant
Overall bit rate                         : 320 kb/s
Album                                    : Originals
Album/Performer                          : Prince
Track name                               : Holly Rock
Track name/Position                      : 8
Performer                                : Prince
Publisher                                : NPG Records, Inc. / Warner Records Inc.
Genre                                    : Pop / Rock / Funk
Recorded date                            : 2019
Writing library                          : LAME3.100
Cover                                    : Yes
Cover type                               : Cover (front)
Cover MIME                               : image/jpeg
Comment                                  : LOSSLESSBEST RELEASES: Visit site [url=https://flacmania.ru/]https://flacmania.ru/[/url]

Audio
Format                                   : MPEG Audio
Format version                           : Version 1
Format profile                           : Layer 3
Format settings                          : Joint stereo
Duration                                 : 6 min 38 s
Bit rate mode                            : Constant
Bit rate                                 : 320 kb/s
Channel(s)                               : 2 channels
Sampling rate                            : 44.1 kHz
Frame rate                               : 38.281 FPS (1152 SPF)
Compression mode                         : Lossy
Stream size                              : 15.2 MiB (99%)
Writing library                          : LAME3.100
Encoding settings                        : -m j -V 4 -q 0 -lowpass 20.5

General
Complete name                            : C:\Prince - Originals - 2019 (320 kbps)\09. Baby, You're A Trip.mp3
Format                                   : MPEG Audio
File size                                : 13.5 MiB
Duration                                 : 5 min 51 s
Overall bit rate mode                    : Constant
Overall bit rate                         : 320 kb/s
Album                                    : Originals
Album/Performer                          : Prince
Track name                               : Baby, You're A Trip
Track name/Position                      : 9
Performer                                : Prince
Publisher                                : NPG Records, Inc. / Warner Records Inc.
Genre                                    : Pop / Rock / Funk
Recorded date                            : 2019
Writing library                          : LAME3.100
Cover                                    : Yes
Cover type                               : Cover (front)
Cover MIME                               : image/jpeg
Comment                                  : LOSSLESSBEST RELEASES: Visit site [url=https://flacmania.ru/]https://flacmania.ru/[/url]

Audio
Format                                   : MPEG Audio
Format version                           : Version 1
Format profile                           : Layer 3
Format settings                          : Joint stereo / MS Stereo
Duration                                 : 5 min 51 s
Bit rate mode                            : Constant
Bit rate                                 : 320 kb/s
Channel(s)                               : 2 channels
Sampling rate                            : 44.1 kHz
Frame rate                               : 38.281 FPS (1152 SPF)
Compression mode                         : Lossy
Stream size                              : 13.4 MiB (99%)
Writing library                          : LAME3.100
Encoding settings                        : -m j -V 4 -q 0 -lowpass 20.5

General
Complete name                            : C:\Prince - Originals - 2019 (320 kbps)\10. The Glamorous Life.mp3
Format                                   : MPEG Audio
File size                                : 9.68 MiB
Duration                                 : 4 min 11 s
Overall bit rate mode                    : Constant
Overall bit rate                         : 320 kb/s
Album                                    : Originals
Album/Performer                          : Prince
Track name                               : The Glamorous Life
Track name/Position                      : 10
Performer                                : Prince
Publisher                                : NPG Records, Inc. / Warner Records Inc.
Genre                                    : Pop / Rock / Funk
Recorded date                            : 2019
Writing library                          : LAME3.100
Cover                                    : Yes
Cover type                               : Cover (front)
Cover MIME                               : image/jpeg
Comment                                  : LOSSLESSBEST RELEASES: Visit site [url=https://flacmania.ru/]https://flacmania.ru/[/url]

Audio
Format                                   : MPEG Audio
Format version                           : Version 1
Format profile                           : Layer 3
Format settings                          : Joint stereo / MS Stereo
Duration                                 : 4 min 11 s
Bit rate mode                            : Constant
Bit rate                                 : 320 kb/s
Channel(s)                               : 2 channels
Sampling rate                            : 44.1 kHz
Frame rate                               : 38.281 FPS (1152 SPF)
Compression mode                         : Lossy
Stream size                              : 9.60 MiB (99%)
Writing library                          : LAME3.100
Encoding settings                        : -m j -V 4 -q 0 -lowpass 20.5

General
Complete name                            : C:\Prince - Originals - 2019 (320 kbps)\11. Gigolos Get Lonely Too.mp3
Format                                   : MPEG Audio
File size                                : 10.8 MiB
Duration                                 : 4 min 41 s
Overall bit rate mode                    : Constant
Overall bit rate                         : 320 kb/s
Album                                    : Originals
Album/Performer                          : Prince
Track name                               : Gigolos Get Lonely Too
Track name/Position                      : 11
Performer                                : Prince
Publisher                                : NPG Records, Inc. / Warner Records Inc.
Genre                                    : Pop / Rock / Funk
Recorded date                            : 2019
Writing library                          : LAME3.100
Cover                                    : Yes
Cover type                               : Cover (front)
Cover MIME                               : image/jpeg
Comment                                  : LOSSLESSBEST RELEASES: Visit site [url=https://flacmania.ru/]https://flacmania.ru/[/url]

Audio
Format                                   : MPEG Audio
Format version                           : Version 1
Format profile                           : Layer 3
Format settings                          : Joint stereo
Duration                                 : 4 min 41 s
Bit rate mode                            : Constant
Bit rate                                 : 320 kb/s
Channel(s)                               : 2 channels
Sampling rate                            : 44.1 kHz
Frame rate                               : 38.281 FPS (1152 SPF)
Compression mode                         : Lossy
Stream size                              : 10.7 MiB (99%)
Writing library                          : LAME3.100
Encoding settings                        : -m j -V 4 -q 0 -lowpass 20.5

General
Complete name                            : C:\Prince - Originals - 2019 (320 kbps)\12. Love... Thy Will Be Done.mp3
Format                                   : MPEG Audio
File size                                : 9.51 MiB
Duration                                 : 4 min 7 s
Overall bit rate mode                    : Constant
Overall bit rate                         : 320 kb/s
Album                                    : Originals
Album/Performer                          : Prince
Track name                               : Love... Thy Will Be Done
Track name/Position                      : 12
Performer                                : Prince
Publisher                                : NPG Records, Inc. / Warner Records Inc.
Genre                                    : Pop / Rock / Funk
Recorded date                            : 2019
Writing library                          : LAME3.100
Cover                                    : Yes
Cover type                               : Cover (front)
Cover MIME                               : image/jpeg
Comment                                  : LOSSLESSBEST RELEASES: Visit site [url=https://flacmania.ru/]https://flacmania.ru/[/url]

Audio
Format                                   : MPEG Audio
Format version                           : Version 1
Format profile                           : Layer 3
Format settings                          : Joint stereo
Duration                                 : 4 min 7 s
Bit rate mode                            : Constant
Bit rate                                 : 320 kb/s
Channel(s)                               : 2 channels
Sampling rate                            : 44.1 kHz
Frame rate                               : 38.281 FPS (1152 SPF)
Compression mode                         : Lossy
Stream size                              : 9.42 MiB (99%)
Writing library                          : LAME3.100
Encoding settings                        : -m j -V 4 -q 0 -lowpass 20.5

General
Complete name                            : C:\Prince - Originals - 2019 (320 kbps)\13. Dear Michaelangelo.mp3
Format                                   : MPEG Audio
File size                                : 12.4 MiB
Duration                                 : 5 min 22 s
Overall bit rate mode                    : Constant
Overall bit rate                         : 320 kb/s
Album                                    : Originals
Album/Performer                          : Prince
Track name                               : Dear Michaelangelo
Track name/Position                      : 13
Performer                                : Prince
Publisher                                : NPG Records, Inc. / Warner Records Inc.
Genre                                    : Pop / Rock / Funk
Recorded date                            : 2019
Writing library                          : LAME3.100
Cover                                    : Yes
Cover type                               : Cover (front)
Cover MIME                               : image/jpeg
Comment                                  : LOSSLESSBEST RELEASES: Visit site [url=https://flacmania.ru/]https://flacmania.ru/[/url]

Audio
Format                                   : MPEG Audio
Format version                           : Version 1
Format profile                           : Layer 3
Format settings                          : Joint stereo
Duration                                 : 5 min 22 s
Bit rate mode                            : Constant
Bit rate                                 : 320 kb/s
Channel(s)                               : 2 channels
Sampling rate                            : 44.1 kHz
Frame rate                               : 38.281 FPS (1152 SPF)
Compression mode                         : Lossy
Stream size                              : 12.3 MiB (99%)
Writing library                          : LAME3.100
Encoding settings                        : -m j -V 4 -q 0 -lowpass 20.5

General
Complete name                            : C:\Prince - Originals - 2019 (320 kbps)\14. Wouldn't You Love To Love Me.mp3
Format                                   : MPEG Audio
File size                                : 13.7 MiB
Duration                                 : 5 min 56 s
Overall bit rate mode                    : Constant
Overall bit rate                         : 320 kb/s
Album                                    : Originals
Album/Performer                          : Prince
Track name                               : Wouldn't You Love To Love Me?
Track name/Position                      : 14
Performer                                : Prince
Publisher                                : NPG Records, Inc. / Warner Records Inc.
Genre                                    : Pop / Rock / Funk
Recorded date                            : 2019
Writing library                          : LAME3.100
Cover                                    : Yes
Cover type                               : Cover (front)
Cover MIME                               : image/jpeg
Comment                                  : LOSSLESSBEST RELEASES: Visit site [url=https://flacmania.ru/]https://flacmania.ru/[/url]

Audio
Format                                   : MPEG Audio
Format version                           : Version 1
Format profile                           : Layer 3
Format settings                          : Joint stereo / MS Stereo
Duration                                 : 5 min 56 s
Bit rate mode                            : Constant
Bit rate                                 : 320 kb/s
Channel(s)                               : 2 channels
Sampling rate                            : 44.1 kHz
Frame rate                               : 38.281 FPS (1152 SPF)
Compression mode                         : Lossy
Stream size                              : 13.6 MiB (99%)
Writing library                          : LAME3.100
Encoding settings                        : -m j -V 4 -q 0 -lowpass 20.5

General
Complete name                            : C:\Prince - Originals - 2019 (320 kbps)\15. Nothing Compares 2 U.mp3
Format                                   : MPEG Audio
File size                                : 10.8 MiB
Duration                                 : 4 min 39 s
Overall bit rate mode                    : Constant
Overall bit rate                         : 320 kb/s
Album                                    : Originals
Album/Performer                          : Prince
Track name                               : Nothing Compares 2 U
Track name/Position                      : 15
Performer                                : Prince
Publisher                                : NPG Records, Inc. / Warner Records Inc.
Genre                                    : Pop / Rock / Funk
Recorded date                            : 2019
Writing library                          : LAME3.100
Cover                                    : Yes
Cover type                               : Cover (front)
Cover MIME                               : image/jpeg
Comment                                  : LOSSLESSBEST RELEASES: Visit site [url=https://flacmania.ru/]https://flacmania.ru/[/url]

Audio
Format                                   : MPEG Audio
Format version                           : Version 1
Format profile                           : Layer 3
Format settings                          : Joint stereo
Duration                                 : 4 min 39 s
Bit rate mode                            : Constant
Bit rate                                 : 320 kb/s
Channel(s)                               : 2 channels
Sampling rate                            : 44.1 kHz
Frame rate                               : 38.281 FPS (1152 SPF)
Compression mode                         : Lossy
Stream size                              : 10.7 MiB (99%)
Writing library                          : LAME3.100
Encoding settings                        : -m j -V 4 -q 0 -lowpass 20.5

General
Complete name                            : C:\Prince - Originals - 2019 (320 kbps)\Cover.jpg
Format                                   : JPEG
File size                                : 4.37 MiB

Image
Format                                   : JPEG
Width                                    : 3 000 pixels
Height                                   : 3 000 pixels
Color space                              : YUV
Chroma subsampling                       : 4:4:4
Bit depth                                : 8 bits
Compression mode                         : Lossy
Stream size                              : 4.37 MiB (100%)

General
Complete name                            : C:\Prince - Originals - 2019 (320 kbps)\Scans\Back.jpg
Format                                   : JPEG
File size                                : 386 KiB

Image
Format                                   : JPEG
Width                                    : 1 500 pixels
Height                                   : 1 500 pixels
Color space                              : YUV
Chroma subsampling                       : 4:4:4
Bit depth                                : 8 bits
Compression mode                         : Lossy
Stream size                              : 386 KiB (100%)

General
Complete name                            : C:\Prince - Originals - 2019 (320 kbps)\Scans\CD.jpg
Format                                   : JPEG
File size                                : 1.77 MiB

Image
Format                                   : JPEG
Width                                    : 2 461 pixels
Height                                   : 2 461 pixels
Color space                              : YUV
Chroma subsampling                       : 4:4:4
Bit depth                                : 8 bits
Compression mode                         : Lossy
Stream size                              : 1.77 MiB (100%)

General
Complete name                            : C:\Prince - Originals - 2019 (320 kbps)\Scans\Front.jpg
Format                                   : JPEG
File size                                : 4.73 MiB

Image
Format                                   : JPEG
Width                                    : 3 600 pixels
Height                                   : 3 600 pixels
Color space                              : YUV
Chroma subsampling                       : 4:4:4
Bit depth                                : 8 bits
Compression mode                         : Lossy
Stream size                              : 4.73 MiB (100%)

General
Complete name                            : C:\Prince - Originals - 2019 (320 kbps)\Scans\Label.jpg
Format                                   : JPEG
File size                                : 1.73 MiB

Image
Format                                   : JPEG
Width                                    : 2 461 pixels
Height                                   : 2 461 pixels
Color space                              : YUV
Chroma subsampling                       : 4:4:4
Bit depth                                : 8 bits
Compression mode                         : Lossy
Stream size                              : 1.73 MiB (100%)



Время раздачи: как минимум до появления первых 3-5 скачавших
Правила, инструкции, FAQ!!!
Торрент  Добавлен [12 июн 2019, 00:23] Скачать торрент Магнет ссылка
Скачать торрент
[ Размер 26.81 КБ / Просмотров 4 ]

Статус
Проверен 
 
Размер  160.33 МБ
Приватный: Нет (DHT включён)
.torrent скачан  0
Как залить торрент? | Как скачать Torrent? | Ошибка в торренте? Качайте магнет  


     Отправить личное сообщение
   
Страница 1 из 1
Показать сообщения за:  Поле сортировки  
Начать новую тему Ответить на тему


Сейчас этот форум просматривают: нет зарегистрированных пользователей и гости: 1


Вы не можете начинать темы
Вы не можете отвечать на сообщения
Вы не можете редактировать свои сообщения
Вы не можете удалять свои сообщения
Вы не можете добавлять вложения

Перейти:  
Ресурс не предоставляет электронные версии произведений, а занимается лишь коллекционированием и каталогизацией ссылок, присылаемых и публикуемых на форуме нашими читателями. Если вы являетесь правообладателем какого-либо представленного материала и не желаете чтобы ссылка на него находилась в нашем каталоге, свяжитесь с нами и мы незамедлительно удалим её. Файлы для обмена на трекере предоставлены пользователями сайта, и администрация не несёт ответственности за их содержание. Просьба не заливать файлы, защищенные авторскими правами, а также файлы нелегального содержания!