Начать новую тему Ответить на тему
Статистика раздачи
Размер: 239.54 МБ | Добавлен: 23 май 2019, 20:04 | Скачали: 0
Сидеров: 0  [0 байт/сек]    Личеров: 0  [0 байт/сек]
Пред. тема | След. тема 

Автор
Сообщение

СообщениеДобавлено: 23 май 2019, 20:04 

Ответить с цитатой 

Champion. Раздели успех чемпиона!
Жанр: Eurodance, Pop
Страна-производитель диска: Россия
Год издания: 2004
Издатель (лейбл): Turbo Music
Номер по каталогу: TMCD-116-04
Аудиокодек: FLAC (*.flac)
Тип рипа: image+.cue
Битрейт аудио: lossless
Продолжительность: 0:30:13
Источник (релизер): Диск из личной коллекции
Наличие сканов в содержимом раздачи: да
Треклист:
01 Gloria Gaynor - I Will Survive
02 Horny United - Crazy Paris (Ramon Zenker Radio Edit)
03 Eddy Wata - Jam (Radio Edit)
04 LMC vs. U2 - Take Me To The Clouds Above (Radio Edit)
05 Biba Binoche - Je T'Aime Melancolie (Electro Radio Edit)
06 Billy More - Weekend (Original Radio Edit)
07 Murfhy Brown vs. Captain Hollywood - Axel F 2003
08 Latino Power MC - Cuchi Cuchi (Radio Mix)
09 Snap! - The Power Of Bhangra (vs. Motivo)
Код:
Exact Audio Copy V1.0 beta 3 from 29. August 2011
Отчёт EAC об извлечении, выполненном 3. июля 2013, 10:24
Various Artists / Champion. Раздели успех чемпиона!
Дисковод: Optiarc DVD RW AD-5280S   Adapter: 0  ID: 0
Режим чтения                 : Достоверность
Использование точного потока : Да
Отключение кэша аудио        : Да
Использование указателей C2  : Нет
Коррекция смещения при чтении                     : 48
Способность читать области Lead-in и Lead-out     : Нет
Заполнение пропущенных сэмплов тишиной            : Да
Удаление блоков с тишиной в начале и конце        : Нет
При вычислениях CRC использовались нулевые сэмплы : Да
Интерфейс                                         : Встроенный Win32-интерфейс для Win NT/2000
Выходной формат          : Пользовательский кодировщик
Выбранный битрейт        : 128 kBit/s
Качество                 : Высокий
Добавление ID3-тега      : Нет
Утилита сжатия           : C:\Program Files (x86)\Exact Audio Copy\FLAC\FLAC.EXE
Дополнительные параметры : -V -8 -T "Date=%year%" -T "Genre=%genre%" %source%
TOC извлечённого CD
     Трек |   Старт  | Длительность | Начальный сектор | Конечный сектор
    ---------------------------------------------------------------------
       1  |  0:00.00 |    3:32.14   |           0      |      15913
       2  |  3:32.14 |    3:04.43   |       15914      |      29756
       3  |  6:36.57 |    3:59.29   |       29757      |      47710
       4  | 10:36.11 |    2:45.65   |       47711      |      60150
       5  | 13:22.01 |    3:42.18   |       60151      |      76818
       6  | 17:04.19 |    3:21.25   |       76819      |      91918
       7  | 20:25.44 |    3:27.26   |       91919      |     107469
       8  | 23:52.70 |    2:54.46   |      107470      |     120565
       9  | 26:47.41 |    3:26.08   |      120566      |     136023
Характеристики диапазона извлечения и сообщения об ошибках
Выбранный диапазон
     Имя файла D:\FLAC\2004 Various Artists - Champion. Раздели успех чемпиона!\2004 Various Artists - Champion. Раздели успех чемпиона!.wav
     Пиковый уровень 100.0 %
     Скорость извлечения 3.4 X
     Качество диапазона 100.0 %
     CRC теста 5076ED6D
     CRC копии 5076ED6D
     Копирование... OK
Ошибок не произошло
AccurateRip: сводка
Трек  1  отсутствует в базе данных
Трек  2  отсутствует в базе данных
Трек  3  отсутствует в базе данных
Трек  4  отсутствует в базе данных
Трек  5  отсутствует в базе данных
Трек  6  отсутствует в базе данных
Трек  7  отсутствует в базе данных
Трек  8  отсутствует в базе данных
Трек  9  отсутствует в базе данных
Ни одного трека нет в базе AccurateRip
Конец отчёта
==== Контрольная сумма отчёта 25E6B4A5CAED7D636E924C9BC4A3933709063F9131CDC649E6CBE672215E2FA1 ====
Код:
REM GENRE Eurodance
REM DATE 2004
REM DISCID 6B071509
REM COMMENT "ExactAudioCopy v1.0b3"
CATALOG 0000000000000
PERFORMER "Various Artists"
TITLE "Champion. Раздели успех чемпиона!"
FILE "2004 Various Artists - Champion. Раздели успех чемпиона!.flac" WAVE
  TRACK 01 AUDIO
    TITLE "I Will Survive"
    PERFORMER "Gloria Gaynor"
    FLAGS DCP
    INDEX 01 00:00:00
  TRACK 02 AUDIO
    TITLE "Crazy Paris (Ramon Zenker Radio Edit)"
    PERFORMER "Horny United"
    FLAGS DCP
    INDEX 01 03:32:14
  TRACK 03 AUDIO
    TITLE "Jam (Radio Edit)"
    PERFORMER "Eddy Wata"
    FLAGS DCP
    INDEX 01 06:36:57
  TRACK 04 AUDIO
    TITLE "Take Me To The Clouds Above (Radio Edit)"
    PERFORMER "LMC vs. U2"
    FLAGS DCP
    INDEX 01 10:36:11
  TRACK 05 AUDIO
    TITLE "Je T'Aime Melancolie (Electro Radio Edit)"
    PERFORMER "Biba Binoche"
    FLAGS DCP
    INDEX 01 13:22:01
  TRACK 06 AUDIO
    TITLE "Weekend (Original Radio Edit)"
    PERFORMER "Billy More"
    FLAGS DCP
    INDEX 01 17:04:19
  TRACK 07 AUDIO
    TITLE "Axel F 2003"
    PERFORMER "Murfhy Brown vs. Captain Hollywood"
    FLAGS DCP
    INDEX 01 20:25:44
  TRACK 08 AUDIO
    TITLE "Cuchi Cuchi (Radio Mix)"
    PERFORMER "Latino Power Mc"
    FLAGS DCP
    INDEX 01 23:52:70
  TRACK 09 AUDIO
    TITLE "The Power Of Bhangra (vs. Motivo)"
    PERFORMER "Snap!"
    FLAGS DCP
    INDEX 01 26:47:41
Код:
-----------------------
DON'T MODIFY THIS FILE
-----------------------
PERFORMER: auCDtect Task Manager, ver. 1.5.1RC4 build 1.5.1.5
Copyright (c) 2008-2010 y-soft. All rights reserved
[url=http://y-soft.org]http://y-soft.org[/url]
ANALYZER: auCDtect: CD records authenticity detector, version 0.8.2
Copyright (c) 2004 Oleg Berngardt. All rights reserved.
Copyright (c) 2004 Alexander Djourik. All rights reserved.
FILE: 2004 Various Artists - Champion. Раздели успех чемпиона!.flac
  Size: 226949928 Hash: 073AC54CD8ED7D843729F1F8233DABB8 Accuracy: -m0
  Conclusion: CDDA 100%
  Signature: AA00607FA8B254F85083967B7D5A44451F501287
Доп. информация: Приложение к покупке бритвы Gillette Mach 3 Turbo (ограниченный тираж)
Правила, инструкции, FAQ!!!
Торрент  Добавлен [23 май 2019, 20:04] Скачать торрент Магнет ссылка
Скачать торрент
[ Размер 19.76 КБ / Просмотров 6 ]

Статус
Проверен 
 
Размер  239.54 МБ
Приватный: Нет (DHT включён)
.torrent скачан  0
Как залить торрент? | Как скачать Torrent? | Ошибка в торренте? Качайте магнет  


     Отправить личное сообщение
   
Страница 1 из 1
Показать сообщения за:  Поле сортировки  
Начать новую тему Ответить на тему


Сейчас этот форум просматривают: нет зарегистрированных пользователей и гости: 0


Вы не можете начинать темы
Вы не можете отвечать на сообщения
Вы не можете редактировать свои сообщения
Вы не можете удалять свои сообщения
Вы не можете добавлять вложения

Перейти:  
Ресурс не предоставляет электронные версии произведений, а занимается лишь коллекционированием и каталогизацией ссылок, присылаемых и публикуемых на форуме нашими читателями. Если вы являетесь правообладателем какого-либо представленного материала и не желаете чтобы ссылка на него находилась в нашем каталоге, свяжитесь с нами и мы незамедлительно удалим её. Файлы для обмена на трекере предоставлены пользователями сайта, и администрация не несёт ответственности за их содержание. Просьба не заливать файлы, защищенные авторскими правами, а также файлы нелегального содержания!
cron