Начать новую тему Ответить на тему
Статистика раздачи
Размер: 117.77 МБ | Добавлен: 23 май 2019, 20:05 | Скачали: 0
Сидеров: 0  [0 байт/сек]    Личеров: 0  [0 байт/сек]
Пред. тема | След. тема 

Автор
Сообщение

СообщениеДобавлено: 23 май 2019, 20:05 

Ответить с цитатой 

Pipoca - Margarida Perfumada
Жанр: Pop, Euro House
Страна-производитель диска: EU
Год издания: 1998
Издатель (лейбл): BMG Berlin Musik GmbH
Номер по каталогу: 74321602922
Аудиокодек: FLAC (*.flac)
Тип рипа: tracks+.cue
Битрейт аудио: lossless
Продолжительность: 16:41
Источник (релизер): CD
Наличие сканов в содержимом раздачи: нет
Треклист:
01. Margarida Perfumada (Radio Mix) [0:03:45.66]
02. Margarida Perfumada (Extended Mix) [0:05:17.24]
03. Margarida Perfumada (Acoustic Mix) [0:03:39.60]
04. Theme From Pipoca (Club 7" Mix) [0:03:53.00]
Код:
Exact Audio Copy V0.99 prebeta 5 from 4. May 2009
EAC extraction logfile from 20. October 2012, 11:31
Pipoca / Margarida Perfumada CDM
Used drive  : SONY    DVD RW DRX-S70U   Adapter: 2  ID: 0
Read mode               : Secure
Utilize accurate stream : Yes
Defeat audio cache      : Yes
Make use of C2 pointers : No
Read offset correction                      : 48
Overread into Lead-In and Lead-Out          : No
Fill up missing offset samples with silence : Yes
Delete leading and trailing silent blocks   : No
Null samples used in CRC calculations       : Yes
Used interface                              : Native Win32 interface for Win NT & 2000
Gap handling                                : Not detected, thus appended to previous track
Used output format : Internal WAV Routines
Sample format      : 44.100 Hz; 16 Bit; Stereo
TOC of the extracted CD
     Track |   Start  |  Length  | Start sector | End sector
    ---------------------------------------------------------
        1  |  0:00.00 |  3:47.49 |         0    |    17073
        2  |  3:47.49 |  5:19.18 |     17074    |    41016
        3  |  9:06.67 |  3:41.45 |     41017    |    57636
        4  | 12:48.37 |  3:53.00 |     57637    |    75111
Track  1
     Filename C:\Users\fancy\Desktop\01. Pipoca - Margarida Perfumada (Radio Mix).wav
     Peak level 100.0 %
     Track quality 100.0 %
     Test CRC C33EEEB7
     Copy CRC C33EEEB7
     Track not present in AccurateRip database
     Copy OK
Track  2
     Filename C:\Users\fancy\Desktop\02. Pipoca - Margarida Perfumada (Extended Mix).wav
     Peak level 100.0 %
     Track quality 100.0 %
     Test CRC EAAC8C42
     Copy CRC EAAC8C42
     Track not present in AccurateRip database
     Copy OK
Track  3
     Filename C:\Users\fancy\Desktop\03. Pipoca - Margarida Perfumada (Acoustic Mix).wav
     Peak level 97.7 %
     Track quality 100.0 %
     Test CRC 81AA6EDD
     Copy CRC 81AA6EDD
     Track not present in AccurateRip database
     Copy OK
Track  4
     Filename C:\Users\fancy\Desktop\04. Pipoca - Theme From Pipoca (Club 7' Mix).wav
     Peak level 100.0 %
     Track quality 100.0 %
     Test CRC 239CC749
     Copy CRC 239CC749
     Track not present in AccurateRip database
     Copy OK
None of the tracks are present in the AccurateRip database
No errors occurred
End of status report
Код:
REM GENRE Pop
REM DATE 1998
REM DISCID 2E03E904
REM COMMENT "ExactAudioCopy v0.99pb5"
PERFORMER "Pipoca"
TITLE "Margarida Perfumada CDM"
FILE "01. Pipoca - Margarida Perfumada (Radio Mix).flac" WAVE
  TRACK 01 AUDIO
    TITLE "Margarida Perfumada (Radio Mix)"
    PERFORMER "Pipoca"
    FLAGS DCP
    INDEX 01 00:00:00
  TRACK 02 AUDIO
    TITLE "Margarida Perfumada (Extended Mix)"
    PERFORMER "Pipoca"
    FLAGS DCP
    INDEX 00 03:45:49
FILE "02. Pipoca - Margarida Perfumada (Extended Mix).wav" WAVE
    INDEX 01 00:00:00
  TRACK 03 AUDIO
    TITLE "Margarida Perfumada (Acoustic Mix)"
    PERFORMER "Pipoca"
    FLAGS DCP
    INDEX 00 05:17:18
FILE "03. Pipoca - Margarida Perfumada (Acoustic Mix).wav" WAVE
    INDEX 01 00:00:00
  TRACK 04 AUDIO
    TITLE "Theme From Pipoca (Club 7' Mix)"
    PERFORMER "Pipoca"
    FLAGS DCP
    INDEX 00 03:39:45
FILE "04. Pipoca - Theme From Pipoca (Club 7' Mix).wav" WAVE
    INDEX 01 00:00:00
Правила, инструкции, FAQ!!!
Торрент  Добавлен [23 май 2019, 20:05] Скачать торрент Магнет ссылка
Скачать торрент
[ Размер 19.36 КБ / Просмотров 3 ]

Статус
Проверен 
 
Размер  117.77 МБ
Приватный: Нет (DHT включён)
.torrent скачан  0
Как залить торрент? | Как скачать Torrent? | Ошибка в торренте? Качайте магнет  


     Отправить личное сообщение
   
Страница 1 из 1
Показать сообщения за:  Поле сортировки  
Начать новую тему Ответить на тему


Сейчас этот форум просматривают: нет зарегистрированных пользователей и гости: 0


Вы не можете начинать темы
Вы не можете отвечать на сообщения
Вы не можете редактировать свои сообщения
Вы не можете удалять свои сообщения
Вы не можете добавлять вложения

Перейти:  
Ресурс не предоставляет электронные версии произведений, а занимается лишь коллекционированием и каталогизацией ссылок, присылаемых и публикуемых на форуме нашими читателями. Если вы являетесь правообладателем какого-либо представленного материала и не желаете чтобы ссылка на него находилась в нашем каталоге, свяжитесь с нами и мы незамедлительно удалим её. Файлы для обмена на трекере предоставлены пользователями сайта, и администрация не несёт ответственности за их содержание. Просьба не заливать файлы, защищенные авторскими правами, а также файлы нелегального содержания!
cron