Начать новую тему Ответить на тему
Статистика раздачи
Размер: 547.32 МБ | Добавлен: 23 май 2019, 20:02 | Скачали: 0
Сидеров: 0  [0 байт/сек]    Личеров: 0  [0 байт/сек]
Пред. тема | След. тема 

Автор
Сообщение

СообщениеДобавлено: 23 май 2019, 20:02 

Ответить с цитатой 

J.M. Silk / Hold On To Your Dream (Expanded Edition)
Жанр: Pop, Electronic, House
Страна-производитель диска: U.S.A.
Год издания: 2011 (1987)
Издатель (лейбл): Funkytowngrooves USA
Номер по каталогу: FTG-264
Аудиокодек: FLAC (*.flac)
Тип рипа: image+.cue
Битрейт аудио: lossless
Продолжительность: 1:18:52
Источник (релизер): Собственный фирменный CD
Наличие сканов в содержимом раздачи: да
Треклист:
01. She's So Far Away [0:03:48.88]
02. Lucky To Be Loved [0:04:07.50]
03. Shadows Of Your Love [0:04:02.46]
04. Cry Of The Lonely [0:04:42.90]
05. Heart Of Passion [0:04:15.41]
06. House In E Flat Major [0:01:47.28]
07. I Can't Turn Around [0:03:52.33]
08. On The Rebound [0:03:45.42]
09. Let The Music Take Control [0:03:55.54]
10. Hold On To Your Dream [0:04:28.34]
11. Jack Your Body [0:04:21.40]
Bonus tracks:
12. I Can't Turn Around (House Mix) [0:07:36.46]
13. Jack Your Body (Club Your Body) [0:06:53.68]
14. She's So Far Away (12'' Mix) [0:07:14.52]
15. Let The Music Take Control (House Mix) [0:06:11.78]
16. Cry Of The Lonely (Club House Mix) [0:07:48.37]
Код:
Exact Audio Copy V1.0 beta 3 from 29. August 2011
EAC extraction logfile from 14. February 2013, 12:53
J.M. Silk / Hold On To Your Dream (Expanded Edition)
Used drive  : PIONEER DVD-RW  DVR-212   Adapter: 2  ID: 0
Read mode               : Secure
Utilize accurate stream : Yes
Defeat audio cache      : Yes
Make use of C2 pointers : No
Read offset correction                      : 48
Overread into Lead-In and Lead-Out          : No
Fill up missing offset samples with silence : Yes
Delete leading and trailing silent blocks   : No
Null samples used in CRC calculations       : Yes
Used interface                              : Native Win32 interface for Win NT & 2000
Used output format              : User Defined Encoder
Selected bitrate                : 896 kBit/s
Quality                         : High
Add ID3 tag                     : Yes
Command line compressor         : C:\Program Files\FLAC\flac.exe
Additional command line options : -V -8 -T "Date=%year%" -T "Genre=%genre%" %source%
TOC of the extracted CD
     Track |   Start  |  Length  | Start sector | End sector
    ---------------------------------------------------------
        1  |  0:00.00 |  3:48.66 |         0    |    17165
        2  |  3:48.66 |  4:07.38 |     17166    |    35728
        3  |  7:56.29 |  4:02.35 |     35729    |    53913
        4  | 11:58.64 |  4:42.68 |     53914    |    75131
        5  | 16:41.57 |  4:15.31 |     75132    |    94287
        6  | 20:57.13 |  1:47.21 |     94288    |   102333
        7  | 22:44.34 |  3:52.25 |    102334    |   119758
        8  | 26:36.59 |  3:45.32 |    119759    |   136665
        9  | 30:22.16 |  3:55.41 |    136666    |   154331
       10  | 34:17.57 |  4:28.26 |    154332    |   174457
       11  | 38:46.08 |  4:21.30 |    174458    |   194062
       12  | 43:07.38 |  7:36.35 |    194063    |   228297
       13  | 50:43.73 |  6:53.51 |    228298    |   259323
       14  | 57:37.49 |  7:14.39 |    259324    |   291912
       15  | 64:52.13 |  6:11.59 |    291913    |   319796
       16  | 71:03.72 |  7:48.28 |    319797    |   354924
Range status and errors
Selected range
     Filename E:\Import CD\J.M. Silk - Hold On To Your Dream (Expanded Edition).wav
     Peak level 99.8 %
     Extraction speed 8.3 X
     Range quality 99.9 %
     Test CRC 4A6EC7D8
     Copy CRC 4A6EC7D8
     Copy OK
No errors occurred
AccurateRip summary
Track  1  not present in database
Track  2  not present in database
Track  3  not present in database
Track  4  not present in database
Track  5  not present in database
Track  6  not present in database
Track  7  not present in database
Track  8  not present in database
Track  9  not present in database
Track 10  not present in database
Track 11  not present in database
Track 12  not present in database
Track 13  not present in database
Track 14  not present in database
Track 15  not present in database
Track 16  not present in database
None of the tracks are present in the AccurateRip database
End of status report
==== Log checksum FE06105E2089181657DB00529BF0436A6174B07928CF40A59129D4AD719B703E ====
Reissue, Expanded Edition, Remastered.

Scans 600 dpi в комплекте.
Правила, инструкции, FAQ!!!
Торрент  Добавлен [23 май 2019, 20:02] Скачать торрент Магнет ссылка
Скачать торрент
[ Размер 23.34 КБ / Просмотров 6 ]

Статус
Проверен 
 
Размер  547.32 МБ
Приватный: Нет (DHT включён)
.torrent скачан  0
Как залить торрент? | Как скачать Torrent? | Ошибка в торренте? Качайте магнет  


     Отправить личное сообщение
   
Страница 1 из 1
Показать сообщения за:  Поле сортировки  
Начать новую тему Ответить на тему


Сейчас этот форум просматривают: нет зарегистрированных пользователей и гости: 0


Вы не можете начинать темы
Вы не можете отвечать на сообщения
Вы не можете редактировать свои сообщения
Вы не можете удалять свои сообщения
Вы не можете добавлять вложения

Перейти:  
Ресурс не предоставляет электронные версии произведений, а занимается лишь коллекционированием и каталогизацией ссылок, присылаемых и публикуемых на форуме нашими читателями. Если вы являетесь правообладателем какого-либо представленного материала и не желаете чтобы ссылка на него находилась в нашем каталоге, свяжитесь с нами и мы незамедлительно удалим её. Файлы для обмена на трекере предоставлены пользователями сайта, и администрация не несёт ответственности за их содержание. Просьба не заливать файлы, защищенные авторскими правами, а также файлы нелегального содержания!
cron