Начать новую тему Ответить на тему
Статистика раздачи
Размер: 7.38 ГБ | Добавлен: 03 апр 2019, 19:44 | Скачали: 0
Сидеров: 11  [0 байт/сек]    Личеров: 5  [0 байт/сек]
Пред. тема | След. тема 

Автор
Сообщение

СообщениеДобавлено: 03 апр 2019, 19:44 

Ответить с цитатой 

Joe Dassin - Коллекция (4 LP, 1x7")
Страна-производитель: France
Жанр: Pop, Chanson
Год выпуска: 1974-1978
Аудио кодек: WavPack
Тип рипа: image+.cue
Формат записи: 32/192
Формат раздачи: 32/192
Наличие сканов : 600 dpi, JPG
A L'Olympia
Страна-производитель: France
Год выпуска: 1981
Производитель: CBS
Номер по каталогу: CBS 80069-70
Продолжительность: 1:05:36Треклист:

A1
Ouverture: L'Amérique
A2 A Chacun Sa Chanson
A4 Salut Les Amoureux
A5 Le Moustique
A6 On S'En Va
A7 Quand On A Seize Ans
B1 Ton Cote Du Lit
B2 Le Berger (Sketch)
B3 Sweet Georgia Brown
Pot-Pourri Americain
B4.1 Boogie Woogie Bugle Boy
B4.2 Piano Roll Blues
B4.3 Lullaby Of Broadway
B4.4 Don't Sit Under The Apple Tree
B4.5 Rhum And Coca-cola
B4.6 In The Mood
C1 Les Plus Belles Annees De Ma Vie
C2 Dede Le Kid
C3 Quand On A Du Feu
C4 C'est La Vie, Lily
C5 Marie-Jeanne
D1 Fais-Moi De L'Electricite
Pot-Pourri Francais
D2.1 Le Chemin De Papa
D2.2 Fais La Bise a Ta Maman
D2.3 Cecilia
D2.4 La Fleur Aux Dents
D2.5 Ma Bonne Etoile
D2.6 Siffler Sur La Colline
D2.7 La Complainte De L'heure De Pointe
D2.8 La Bande a Bonnot
D2.9 Billy Le Bordelais
D2.10 Le Petit Pain Au Chocolat
D2.11 Les Dalton
D3 L'Amerique


Оцифровка выполнена: bruk67 (автором раздачи)
Класс состояния винила: Mint
Устройство воспроизведения: YAMAHA GT-2000 + Oyaide MJ-12 + Clamp 580 g
Звукосниматель: Dynavector XX2MKII + Oyaide HSR-AG
Предварительный усилитель: YAMAHA C-4
АЦП: M-Audio ProFire 610
Программа-оцифровщик: Sony Sound Forge™ Pro 11
Обработка: Неcколько щелчков






Код:
foobar2000 1.2.2 / Замер динамического диапазона (DR) 1.1.1
Дата отчёта:  2018-04-25 01:13:21
--------------------------------------------------------------------------------
Анализ:   Joe Dassin / A L'Olympia (2 LP)
--------------------------------------------------------------------------------
DR         Пики         RMS           Продолжительность трека
--------------------------------------------------------------------------------
DR14      -0.29 дБ   -17.74 дБ      1:07 ?-Ouverture: L'Amérique
DR14      -0.34 дБ   -16.85 дБ      3:10 ?-A Chacun Sa Chanson
DR15      -0.80 дБ   -18.14 дБ      3:38 ?-Salut Les Amoureux
DR15      -0.42 дБ   -18.25 дБ      2:18 ?-Le Moustique
DR14      -0.39 дБ   -18.43 дБ      3:25 ?-On S'En Va
DR13      -2.27 дБ   -18.60 дБ      2:30 ?-Quand On A Seize Ans
DR14      -1.43 дБ   -19.48 дБ      3:33 ?-Ton Cote Du Lit
DR15      -0.97 дБ   -21.06 дБ      1:58 ?-Le Berger (Sketch)
DR13      -2.19 дБ   -20.01 дБ      1:09 ?-Sweet Georgia Brown
DR14      -0.30 дБ   -17.86 дБ      9:50 ?-Pot-Pourri Americain
DR14      -0.72 дБ   -18.49 дБ      4:28 ?-Les Plus Belles Annees De Ma Vie
DR14      -0.64 дБ   -17.14 дБ      2:39 ?-Dede Le Kid
DR13      -1.13 дБ   -17.47 дБ      2:44 ?-Quand On A Du Feu
DR14      -0.53 дБ   -18.35 дБ      2:53 ?-C'est La Vie, Lily
DR15      -3.18 дБ   -23.02 дБ      4:02 ?-Marie-Jeanne
DR14      -0.23 дБ   -17.09 дБ      2:24 ?-Fais-Moi De L'Electricite
DR14      -0.70 дБ   -18.24 дБ      9:39 ?-Pot-Pourri Francais
DR13      -0.34 дБ   -16.80 дБ      4:10 ?-L'Amerique
--------------------------------------------------------------------------------
Количество треков: 18
Реальные значения DR: DR14
Частота:   192000 Гц
Каналов:   2
Разрядность:   32
Битрейт:   12288 кбит/с
Кодек:   PCM
================================================================================
[/spoiler][/spoiler]
Joe Dassin
#777Страна-производитель: France
Год выпуска: 1974
Производитель: CBS
Номер по каталогу: CBS 80594
Продолжительность: 36:36Треклист:

A1
Vade Retro
A2 Si Tu T'appelles Melancolie
A3 Messieurs Les Jures
A4 Six Jours A La Campagne
A5 L'amour Etc...
A6 Entre Deux Adieux
B1 Le Service Militaire
B2 Annie De L'annee Derniere
B3 Marie-Madeleine
B4 Ce N'est Rien Que Du Vent
B5 Je Te Crois
B6 Ma Derniere Chanson Pour Toi


Оцифровка выполнена: bruk67 (автором раздачи)
Класс состояния винила: Mint
Устройство воспроизведения: YAMAHA GT-2000 + Oyaide MJ-12 + Clamp 580 g
Звукосниматель: Dynavector XX2MKII + Oyaide HSR-AG
Предварительный усилитель: YAMAHA C-4
АЦП: M-Audio ProFire 610
Программа-оцифровщик: Sound Forge 12 Suite
Обработка: Неcколько мелких щелчков



Код:
foobar2000 1.2.2 / Замер динамического диапазона (DR) 1.1.1
Дата отчёта:  2019-02-09 19:45:22
--------------------------------------------------------------------------------
Анализ:   Joe Dassin / Joe Dassin (LP)
--------------------------------------------------------------------------------
DR         Пики         RMS           Продолжительность трека
--------------------------------------------------------------------------------
DR13      -0.25 дБ   -14.50 дБ      3:11 ?-Vade Retro
DR11      -0.89 дБ   -14.32 дБ      3:21 ?-Si Tu T'appelles Melancolie
DR11      -0.67 дБ   -14.02 дБ      3:04 ?-Messieurs Les Jures
DR10      -0.57 дБ   -13.69 дБ      2:57 ?-Six Jours A La Campagne
DR12      -0.42 дБ   -14.39 дБ      2:39 ?-L'amour Etc...
DR11      -1.13 дБ   -14.47 дБ      3:12 ?-Entre Deux Adieux
DR13      -0.19 дБ   -15.25 дБ      2:27 ?-Le Service Militaire
DR11      -0.96 дБ   -15.64 дБ      2:49 ?-Annie De L'annee Derniere
DR12      -0.43 дБ   -15.30 дБ      3:34 ?-Marie-Madeleine
DR12      -1.11 дБ   -15.21 дБ      4:19 ?-Ce N'est Rien Que Du Vent
DR13      -0.50 дБ   -15.19 дБ      2:17 ?-Je Te Crois
DR11      -2.06 дБ   -15.81 дБ      2:46 ?-Ma Derniere Chanson Pour Toi
--------------------------------------------------------------------------------
Количество треков: 12
Реальные значения DR: DR12
Частота:   192000 Гц
Каналов:   2
Разрядность:   32
Битрейт:   12288 кбит/с
Кодек:   PCM
================================================================================
[/spoiler][/spoiler]
Le Jardin Du Luxembourg
#777Страна-производитель: France
Год выпуска: 1976
Производитель: CBS
Номер по каталогу: CBS 81679
Продолжительность: 32:35Треклист:

A1
Le Jardin Du Luxembourg
A2 Il Etait Une Fois Nous Deux
B1 A Toi
B2 Le Café Des 3 Colombes ('t Kleine Café Aan De Haven)
B3 Comme Disait Valentine
B4 Laisse-Moi Dormir (Sleep All Mornin')
B5 Que Sont Devenues Mes Amours?


Оцифровка выполнена: bruk67 (автором раздачи)
Класс состояния винила: NMint
Устройство воспроизведения: YAMAHA GT-2000 + Oyaide MJ-12 + Clamp 580 g
Звукосниматель: Dynavector XX2MKII + Oyaide HSR-AG
Предварительный усилитель: YAMAHA C-4
АЦП: M-Audio ProFire 610
Программа-оцифровщик: Sound Forge Pro 12 Suite
Обработка: Заметные щелчки



Код:
foobar2000 1.2.2 / Замер динамического диапазона (DR) 1.1.1
Дата отчёта:  2018-10-23 02:02:10
--------------------------------------------------------------------------------
Анализ:   Joe Dassin / Le Jardin Du Luxembourg (LP)
--------------------------------------------------------------------------------
DR         Пики         RMS           Продолжительность трека
--------------------------------------------------------------------------------
DR12      -0.79 дБ   -16.06 дБ     12:03 ?-Le Jardin Du Luxembourg
DR13      -0.25 дБ   -15.34 дБ      3:57 ?-Il Etait Une Fois Nous Deux
DR13      -0.25 дБ   -15.18 дБ      2:52 ?-A Toi
DR13      -0.41 дБ   -16.27 дБ      4:02 ?-Le Café Des 3 Colombes ('t Kleine Café Aan De Haven)
DR13      -0.49 дБ   -15.51 дБ      3:07 ?-Comme Disait Valentine
DR13      -0.17 дБ   -15.30 дБ      2:52 ?-Laisse-Moi Dormir (Sleep All Mornin')
DR13      -0.44 дБ   -17.27 дБ      3:43 ?-Que Sont Devenues Mes Amours?
--------------------------------------------------------------------------------
Количество треков: 7
Реальные значения DR: DR13
Частота:   192000 Гц
Каналов:   2
Разрядность:   32
Битрейт:   12288 кбит/с
Кодек:   PCM
================================================================================
[/spoiler][/spoiler]
Si Tu Penses A Moi / Sorry (Single)
#777Страна-производитель: France
Год выпуска: 1978
Производитель: CBS
Номер по каталогу: CBS 6475
Продолжительность: 7:14Треклист:

A
Si Tu Penses A Moi (No Woman No Cry)
B Sorry (Because I Love You)


Оцифровка выполнена: bruk67 (автором раздачи)
Класс состояния винила: Mint
Устройство воспроизведения: YAMAHA GT-2000 + Oyaide MJ-12 + Clamp 580 g
Звукосниматель: Dynavector XX2MKII + Oyaide HSR-AG
Предварительный усилитель: YAMAHA C-4
АЦП: M-Audio ProFire 610
Программа-оцифровщик: Sound Forge Pro 12 Suite
Обработка: Неcколько мелких щелчков



Код:
foobar2000 1.2.2 / Замер динамического диапазона (DR) 1.1.1
Дата отчёта:  2019-02-03 01:14:43
--------------------------------------------------------------------------------
Анализ:   Joe Dassin / Si Tu Penses A Moi / Sorry (Single)
--------------------------------------------------------------------------------
DR         Пики         RMS           Продолжительность трека
--------------------------------------------------------------------------------
DR13      -0.34 дБ   -15.10 дБ      3:55 ?-Si Tu Penses A Moi (No Woman No Cry)
DR12      -0.17 дБ   -13.78 дБ      3:19 ?-Sorry (Because I Love You)
--------------------------------------------------------------------------------
Количество треков: 2
Реальные значения DR: DR12
Частота:   192000 Гц
Каналов:   2
Разрядность:   32
Битрейт:   12288 кбит/с
Кодек:   PCM
================================================================================
[/spoiler][/spoiler]
Правила, инструкции, FAQ!!!
Торрент  Добавлен [03 апр 2019, 19:44] Скачать торрент Магнет ссылка
Скачать торрент
[ Размер 41.59 КБ / Просмотров 10 ]

Статус
Проверен 
 
Размер  7.38 ГБ
Приватный: Нет (DHT включён)
.torrent скачан  0
Как залить торрент? | Как скачать Torrent? | Ошибка в торренте? Качайте магнет  


     Отправить личное сообщение
   
Страница 1 из 1
Показать сообщения за:  Поле сортировки  
Начать новую тему Ответить на тему


Сейчас этот форум просматривают: нет зарегистрированных пользователей и гости: 0


Вы не можете начинать темы
Вы не можете отвечать на сообщения
Вы не можете редактировать свои сообщения
Вы не можете удалять свои сообщения
Вы не можете добавлять вложения

Перейти:  
Ресурс не предоставляет электронные версии произведений, а занимается лишь коллекционированием и каталогизацией ссылок, присылаемых и публикуемых на форуме нашими читателями. Если вы являетесь правообладателем какого-либо представленного материала и не желаете чтобы ссылка на него находилась в нашем каталоге, свяжитесь с нами и мы незамедлительно удалим её. Файлы для обмена на трекере предоставлены пользователями сайта, и администрация не несёт ответственности за их содержание. Просьба не заливать файлы, защищенные авторскими правами, а также файлы нелегального содержания!