Начать новую тему Ответить на тему
Статистика раздачи
Размер: 1.25 ГБ | Добавлен: 08 июн 2019, 08:57 | Скачали: 1
Сидеров: 25  [0 байт/сек]    Личеров: 7  [0 байт/сек]
Пред. тема | След. тема 

Автор
Сообщение

СообщениеДобавлено: 08 июн 2019, 08:57 

Ответить с цитатой 

Olivier Latry / Bach to the future
Формат записи/Источник записи: [TR24][OF]
Наличие водяных знаков: Нет
Год издания/переиздания диска: 2019
Жанр: Classical
Издатель (лейбл): La Dolce Volta
Продолжительность: 01:17:29
Наличие сканов в содержимом раздачи: Буклет PDF
Треклист:
Johann Sebastian Bach (1685-1750) :
01. Musical Offering, BWV1079: Ricercar a 6 9:36
02. Fugue in G minor, BWV578 'Little' 4:44
03. Toccata & Fugue in D minor, BWV565 10:07
04. Chorale Prelude BWV721 'Erbarm' dich mein, o Herre Gott' 6:31
05. Fantasia & Fugue in G minor, BWV542 'Great' 7:16
06. Fantasia & Fugue in G minor, BWV542 'Great' 6:40
07. Chorale Prelude BWV617 'Herr Gott, nun schleuß den Himmel auf' 3:23
08. Chorale Prelude BWV727 'Herzlich tut mich verlangen' 4:08
09. Fantasia in G major, BWV572 10:19
10. Passacaglia & Fugue in C minor, BWV582 14:44
Olivier Latry (organ)
Контейнер: FLAC (*.flac)
Тип рипа: tracks
Разрядность: 24/96
Формат: PCM
Количество каналов: 2.0
Код:
foobar2000 1.4.3 / Dynamic Range Meter 1.1.1
log date: 2019-06-07 21:46:38
--------------------------------------------------------------------------------
Analyzed: Olivier Latry / Bach to the future
--------------------------------------------------------------------------------
DR         Peak         RMS     Duration Track
--------------------------------------------------------------------------------
DR13      -3.05 dB   -22.07 dB      9:37 01-Musikalisches Opfer, BWV 1079: Ricercare a 6
DR11     -12.69 dB   -28.37 dB      4:45 02-Fuge G-Moll, BWV 578
DR9       -1.96 dB   -17.16 dB     10:08 03-Toccata und Fuge D-Moll, BWV 565
DR11     -16.82 dB   -30.83 dB      6:31 04-Choral Erbarm' dich mein, o Herre Gott, BWV 721
DR11      -1.57 dB   -16.56 dB      7:17 05-Fantasie G-Moll, BWV 542
DR15      -4.75 dB   -23.85 dB      6:41 06-Fuge G-Moll, BWV 542
DR12      -7.00 dB   -21.68 dB      3:24 07-In dir ist Freude, BWV 617
DR10     -14.73 dB   -27.39 dB      4:08 08-Choral Herzlich tut mich verlangen, BWV 727
DR12      -1.68 dB   -20.16 dB     10:20 09-Pièce d'orgue, BWV 572
DR13      -1.57 dB   -21.35 dB     14:45 10-Passacaille und fuge C-Moll, BWV 582
--------------------------------------------------------------------------------
Number of tracks:  10
Official DR value: DR12
Samplerate:        96000 Hz
Channels:          2
Bits per sample:   24
Bitrate:           2319 kbps
Codec:             FLAC
================================================================================
Источник (релизер): https://www.prestomusic.com/classical/products/8605246--bach-to-the-future
Правила, инструкции, FAQ!!!
Торрент  Добавлен [08 июн 2019, 08:57] Скачать торрент Магнет ссылка
Скачать торрент
[ Размер 26.34 КБ / Просмотров 9 ]

Статус
Проверен 
 
Размер  1.25 ГБ
Приватный: Нет (DHT включён)
.torrent скачан  1
Как залить торрент? | Как скачать Torrent? | Ошибка в торренте? Качайте магнет  


     Отправить личное сообщение
   
Страница 1 из 1
Показать сообщения за:  Поле сортировки  
Начать новую тему Ответить на тему


Сейчас этот форум просматривают: нет зарегистрированных пользователей и гости: 0


Вы не можете начинать темы
Вы не можете отвечать на сообщения
Вы не можете редактировать свои сообщения
Вы не можете удалять свои сообщения
Вы не можете добавлять вложения

Перейти:  
Ресурс не предоставляет электронные версии произведений, а занимается лишь коллекционированием и каталогизацией ссылок, присылаемых и публикуемых на форуме нашими читателями. Если вы являетесь правообладателем какого-либо представленного материала и не желаете чтобы ссылка на него находилась в нашем каталоге, свяжитесь с нами и мы незамедлительно удалим её. Файлы для обмена на трекере предоставлены пользователями сайта, и администрация не несёт ответственности за их содержание. Просьба не заливать файлы, защищенные авторскими правами, а также файлы нелегального содержания!