Начать новую тему Ответить на тему
Статистика раздачи
Размер: 1.45 ГБ | Добавлен: 08 июн 2019, 08:57 | Скачали: 1
Сидеров: 0  [0 байт/сек]    Личеров: 0  [0 байт/сек]
Пред. тема | След. тема 

Автор
Сообщение

СообщениеДобавлено: 08 июн 2019, 08:57 

Ответить с цитатой 

Nino Rota - The Fellini Album


Формат записи/Источник записи: [TR24][OF]
Наличие водяных знаков: Нет
Год издания: 2019
Жанр: Classical
Издатель (лейбл): Decca Music Group
Продолжительность: 01:20:52
Наличие сканов в содержимом раздачи: Буклет PDF
Контейнер: FLAC (*.flac)
Тип рипа: tracks
Разрядность: 24/96
Формат: PCM
Количество каналов: 2.0
Источник (релизер): highresaudio.com
Amarcord - Suite
1. 1. Danzando nella nebbia
2. 2. La Fogaraccia
3. 3. Lo struscio
4. 4. Le “manine” di primavera
Otto e mezzo - Suite
5. 1. Titoli
6. 2. Sogno (Il cimitero)
7. 3. Discesa ai fanghi
8. 4. Lo Sceicco d’Arabia
9. 5. Carlotta’s gallop
10. 6. Passerella d’addio
La dolce vita - Suite
11. 1. Titoli - 2. Festoso
12. 3. Notturno
13. 4. Via Veneto
14. 5. Cavallino Canzonetta
15. 6. Parlami di me (a la Circus)
16. 7. Parlami di me
17. 8. Notturno o mattutino
18. 9. La dolce vita
Il Casanova di Federico Fellini - Suite sinfonica
19. 1. O Venezia, Venaga, Venusia
20. 2. L’uccello magico
21. 3. Intermezzo della mantide religiosa
22. 4. The great Mouna
23. 5. Il Duca di Württenberg
24. 6. La poupée automate
25. I Clowns - Suite
26. Amarcord (Arr. Ross)
Filarmonica della Scala
Riccardo Chailly
, conductor
Код:
foobar2000 1.4 / Dynamic Range Meter 1.1.1
log date: 2019-06-07 06:57:39
--------------------------------------------------------------------------------
Analyzed: Filarmonica della Scala / The Fellini Album
--------------------------------------------------------------------------------
DR         Peak         RMS     Duration Track
--------------------------------------------------------------------------------
DR12      -4.08 dB   -19.68 dB      2:06 01-1. Danzando nella nebbia
DR13      -0.58 dB   -17.75 dB      3:05 02-2. La Fogaraccia
DR14      -0.52 dB   -19.49 dB      5:48 03-3. Lo struscio
DR10      -9.64 dB   -24.85 dB      2:36 04-4. Le “manine” di primavera
DR10      -2.73 dB   -18.97 dB      1:11 05-1. Titoli
DR9      -16.24 dB   -30.55 dB      1:32 06-2. Sogno (Il cimitero)
DR13      -0.54 dB   -17.91 dB      2:16 07-3. Discesa ai fanghi
DR13      -2.83 dB   -18.89 dB      3:14 08-4. Lo Sceicco d’Arabia
DR13      -0.47 dB   -16.12 dB      2:35 09-5. Carlotta’s gallop
DR12      -0.52 dB   -16.84 dB      5:35 10-6. Passerella d’addio
DR11      -0.52 dB   -15.04 dB      1:52 11-1. Titoli - 2. Festoso
DR9       -6.90 dB   -20.72 dB      0:51 12-3. Notturno
DR10     -10.44 dB   -24.64 dB      0:39 13-4. Via Veneto
DR12      -0.52 dB   -17.82 dB      1:14 14-5. Cavallino Canzonetta
DR11      -0.85 dB   -14.05 dB      0:33 15-6. Parlami di me (a la Circus)
DR15      -0.75 dB   -20.95 dB      2:48 16-7. Parlami di me
DR11      -7.67 dB   -21.71 dB      1:04 17-8. Notturno o mattutino
DR11      -0.52 dB   -15.33 dB      2:37 18-9. La dolce vita
DR13      -4.00 dB   -22.51 dB      4:32 19-1. O Venezia, Venaga, Venusia
DR12      -0.52 dB   -16.67 dB      2:34 20-2. L’uccello magico
DR12      -4.12 dB   -22.50 dB      4:14 21-3. Intermezzo della mantide religiosa
DR14      -0.83 dB   -20.66 dB      2:17 22-4. The great Mouna
DR11      -0.52 dB   -15.04 dB      4:28 23-5. Il Duca di Württenberg
DR12     -13.90 dB   -30.89 dB      3:37 24-6. La poupée automate
DR13      -0.52 dB   -17.32 dB     13:06 25-Rota: I Clowns - Suite
DR11      -0.52 dB   -15.49 dB      4:27 26-Rota: Amarcord (Arr. Ross)
--------------------------------------------------------------------------------
Number of tracks:  26
Official DR value: DR12
Samplerate:        96000 Hz
Channels:          2
Bits per sample:   24
Bitrate:           2573 kbps
Codec:             FLAC
================================================================================
Together with the Filarmonica della Scala, Riccardo Chailly explores the iconic film scores of Nino Rota in a new collection, The Fellini Album. Slated for release on June 7 to mark 40 years since Rota’s death in April 1979, the album contains music from classic Federico Fellini films that capture the spirit of Italian cinema in the 1950s and 60s. The Fellini Album includes brand new recordings of music from La Dolce Vita, Amarcord, 8 ½, The Clowns and Il Casanova. The Fellini Album is available to pre-order now and will be released on Decca Classics/Universal Music Canada, the country’s leading music company on June 7.
For Rota – undoubtedly the leading composer of Italian film music during the 1950s and 60s – Fellini’s cinematic world allowed him to explore his full creative potential, despite the director’s lack of understanding of music as a creative medium, by his own admission. Rota went on to write the soundtracks for all of Fellini’s films from Lo sceicco bianco (The White Sheikh) to Prova d’orchestra (Orchestra rehearsal). The two men had a working relationship that was, in Fellini’s words, “a convergence of two temperaments, two natures, two creatures who, within their own limits, had no option but to cohabit the film-making process”.
Rota’s compositional style was widely derided by his contemporaries, who considered it devoid of any innate beauty on account of being too closely tied to film music. The composer did not believe in drawing distinctions between different genres, and was more concerned with creating music that entered into a dialogue with the images onscreen rather than being overpowered by them with too much texture and pomp.
Riccardo Chailly first met Rota in 1974 in Lanciano, Italy, when the composer was preparing the young participants in the town’s International Summer Orchestra Course for a performance of Rota’s Piano Concerto in C. Chailly, then only 21, was struck by Rota’s easy-going nature, and recalls an incredibly cultured man with an enormous musical knowledge.
Born in 1953 in Milan, Riccardo Chailly started his career as an opera conductor and gradually extended his repertoire to encompass symphonic music. With a recording catalogue of over 150 releases, Chailly has the longest exclusive recording contract of any living conductor, working with Decca for over 40 years to date.
Works included on the release enable listeners to appreciate Rota’s “chameleon-like” compositional style in full, and hear Chailly, along with the Filarmonica della Scala, expertly explore every subtle detail of Rota’s instrumentation, melodies and rhythms.
Правила, инструкции, FAQ!!!
Торрент  Добавлен [08 июн 2019, 08:57] Скачать торрент Магнет ссылка
Скачать торрент
[ Размер 16.66 КБ / Просмотров 10 ]

Статус
Проверен 
 
Размер  1.45 ГБ
Приватный: Нет (DHT включён)
.torrent скачан  1
Как залить торрент? | Как скачать Torrent? | Ошибка в торренте? Качайте магнет  


     Отправить личное сообщение
   
Страница 1 из 1
Показать сообщения за:  Поле сортировки  
Начать новую тему Ответить на тему


Сейчас этот форум просматривают: нет зарегистрированных пользователей и гости: 0


Вы не можете начинать темы
Вы не можете отвечать на сообщения
Вы не можете редактировать свои сообщения
Вы не можете удалять свои сообщения
Вы не можете добавлять вложения

Перейти:  
Ресурс не предоставляет электронные версии произведений, а занимается лишь коллекционированием и каталогизацией ссылок, присылаемых и публикуемых на форуме нашими читателями. Если вы являетесь правообладателем какого-либо представленного материала и не желаете чтобы ссылка на него находилась в нашем каталоге, свяжитесь с нами и мы незамедлительно удалим её. Файлы для обмена на трекере предоставлены пользователями сайта, и администрация не несёт ответственности за их содержание. Просьба не заливать файлы, защищенные авторскими правами, а также файлы нелегального содержания!