Начать новую тему Ответить на тему
Статистика раздачи
Размер: 451.93 МБ | Добавлен: 12 май 2019, 09:48 | Скачали: 3
Сидеров: 15  [0 байт/сек]    Личеров: 0  [0 байт/сек]
Пред. тема | След. тема 

Автор
Сообщение

СообщениеДобавлено: 12 май 2019, 09:48 

Ответить с цитатой 

Rhythm of the rainforest
Жанр: new age, relax, ethnic
Носитель: CD
Страна-производитель диска (релиза): US
Год издания: 2003
Издатель (лейбл): EarthSong Records
Номер по каталогу: 0-51836
Аудиокодек: FLAC (*.flac)
Тип рипа: tracks+.cue
Продолжительность: 76:05
Источник: собственный рип
Наличие сканов в содержимом раздачи: да
Треклист:
01. Spirit Within (5:10)
02. Wandering Piper (7:27)
03. Moon Over Serengeti (6:23)
04. Heart Of The Rainforest (5:54)
05. Medicine Man (3:48)
06. Morning Drum (4:52)
07. Shaman (5:25)
08. Prayer For Rain (5:29)
09. Night Of The Lion (5:24)
10. Kowando (5:34)
11. Sacred Chant (4:13)
12. Mystic River (4:37)
13. Silent Warrior (4:00)
14. Song For The Ruins (3:17)
15. Carolan's Ramble To Cashel (4:32)
Код:
Exact Audio Copy V1.3 from 2. September 2016
EAC extraction logfile from 6. May 2019, 0:34
Various / Rhythm of the Rainforest
Used drive  : TEAC    CD-W524E   Adapter: 1  ID: 1
Read mode               : Secure
Utilize accurate stream : Yes
Defeat audio cache      : Yes
Make use of C2 pointers : No
Read offset correction                      : 686
Overread into Lead-In and Lead-Out          : No
Fill up missing offset samples with silence : Yes
Delete leading and trailing silent blocks   : No
Null samples used in CRC calculations       : Yes
Used interface                              : Native Win32 interface for Win NT & 2000
Gap handling                                : Appended to previous track
Used output format              : User Defined Encoder
Selected bitrate                : 896 kBit/s
Quality                         : High
Add ID3 tag                     : No
Command line compressor         : C:\Program Files\Exact Audio Copy\FLAC\FLAC.EXE
Additional command line options : -8 -V -T "ARTIST=%artist%" -T "TITLE=%title%" -T "ALBUM=%albumtitle%" -T "DATE=%year%" -T "TRACKNUMBER=%tracknr%" -T "GENRE=%genre%" -T "COMMENT=%comment%" %hascover%--picture="%coverfile%"%hascover% %source% -o %dest%
TOC of the extracted CD
     Track |   Start  |  Length  | Start sector | End sector
    ---------------------------------------------------------
        1  |  0:00.00 |  5:09.60 |         0    |    23234
        2  |  5:09.60 |  7:27.32 |     23235    |    56791
        3  | 12:37.17 |  6:22.43 |     56792    |    85484
        4  | 18:59.60 |  5:54.28 |     85485    |   112062
        5  | 24:54.13 |  3:48.09 |    112063    |   129171
        6  | 28:42.22 |  4:52.14 |    129172    |   151085
        7  | 33:34.36 |  5:25.06 |    151086    |   175466
        8  | 38:59.42 |  5:29.24 |    175467    |   200165
        9  | 44:28.66 |  5:23.52 |    200166    |   224442
       10  | 49:52.43 |  5:33.66 |    224443    |   249483
       11  | 55:26.34 |  4:12.51 |    249484    |   268434
       12  | 59:39.10 |  4:36.53 |    268435    |   289187
       13  | 64:15.63 |  3:59.55 |    289188    |   307167
       14  | 68:15.43 |  3:17.21 |    307168    |   321963
       15  | 71:32.64 |  4:32.05 |    321964    |   342368
Track  1
     Filename I:\CD_lossless_my\Rhythm of the rainforest (2003)\01. Various - Spirit Within.wav
     Pre-gap length  0:00:02.00
     Peak level 82.5 %
     Extraction speed 5.0 X
     Track quality 100.0 %
     Test CRC 3FD08DFF
     Copy CRC 3FD08DFF
     Track not present in AccurateRip database
     Copy OK
Track  2
     Filename I:\CD_lossless_my\Rhythm of the rainforest (2003)\02. Various - Wandering Piper.wav
     Pre-gap length  0:00:02.00
     Peak level 93.1 %
     Extraction speed 5.7 X
     Track quality 100.0 %
     Test CRC 070E6567
     Copy CRC 070E6567
     Track not present in AccurateRip database
     Copy OK
Track  3
     Filename I:\CD_lossless_my\Rhythm of the rainforest (2003)\03. Various - Moon Over Serengeti.wav
     Pre-gap length  0:00:02.00
     Peak level 91.5 %
     Extraction speed 6.3 X
     Track quality 100.0 %
     Test CRC A5EE13C6
     Copy CRC A5EE13C6
     Track not present in AccurateRip database
     Copy OK
Track  4
     Filename I:\CD_lossless_my\Rhythm of the rainforest (2003)\04. Various - Heart Of The Rainforest.wav
     Pre-gap length  0:00:02.00
     Peak level 89.1 %
     Extraction speed 6.7 X
     Track quality 100.0 %
     Test CRC 916F32B7
     Copy CRC 916F32B7
     Track not present in AccurateRip database
     Copy OK
Track  5
     Filename I:\CD_lossless_my\Rhythm of the rainforest (2003)\05. Various - Medicine Man.wav
     Pre-gap length  0:00:02.00
     Peak level 100.0 %
     Extraction speed 6.7 X
     Track quality 100.0 %
     Test CRC FEF5268C
     Copy CRC FEF5268C
     Track not present in AccurateRip database
     Copy OK
Track  6
     Filename I:\CD_lossless_my\Rhythm of the rainforest (2003)\06. Various - Morning Drum.wav
     Pre-gap length  0:00:02.00
     Peak level 100.0 %
     Extraction speed 7.3 X
     Track quality 100.0 %
     Test CRC E3E8250F
     Copy CRC E3E8250F
     Track not present in AccurateRip database
     Copy OK
Track  7
     Filename I:\CD_lossless_my\Rhythm of the rainforest (2003)\07. Various - Shaman.wav
     Pre-gap length  0:00:02.00
     Peak level 95.2 %
     Extraction speed 7.7 X
     Track quality 100.0 %
     Test CRC 6D81C0ED
     Copy CRC 6D81C0ED
     Track not present in AccurateRip database
     Copy OK
Track  8
     Filename I:\CD_lossless_my\Rhythm of the rainforest (2003)\08. Various - Prayer For Rain.wav
     Pre-gap length  0:00:02.00
     Peak level 100.0 %
     Extraction speed 4.3 X
     Track quality 99.9 %
     Test CRC CE8F7F84
     Copy CRC CE8F7F84
     Track not present in AccurateRip database
     Copy OK
Track  9
     Filename I:\CD_lossless_my\Rhythm of the rainforest (2003)\09. Various - Night Of The Lion.wav
     Pre-gap length  0:00:02.00
     Peak level 93.1 %
     Extraction speed 4.4 X
     Track quality 99.9 %
     Test CRC A0852839
     Copy CRC A0852839
     Track not present in AccurateRip database
     Copy OK
Track 10
     Filename I:\CD_lossless_my\Rhythm of the rainforest (2003)\10. Various - Kowando.wav
     Pre-gap length  0:00:01.74
     Peak level 100.0 %
     Extraction speed 7.9 X
     Track quality 100.0 %
     Test CRC 4FF8F3A8
     Copy CRC 4FF8F3A8
     Track not present in AccurateRip database
     Copy OK
Track 11
     Filename I:\CD_lossless_my\Rhythm of the rainforest (2003)\11. Various - Sacred Chant.wav
     Pre-gap length  0:00:02.00
     Peak level 99.6 %
     Extraction speed 3.9 X
     Track quality 99.9 %
     Test CRC 47161FEB
     Copy CRC 47161FEB
     Track not present in AccurateRip database
     Copy OK
Track 12
     Filename I:\CD_lossless_my\Rhythm of the rainforest (2003)\12. Various - Mystic River.wav
     Pre-gap length  0:00:02.00
     Peak level 89.1 %
     Extraction speed 7.8 X
     Track quality 100.0 %
     Test CRC 0606AD4B
     Copy CRC 0606AD4B
     Track not present in AccurateRip database
     Copy OK
Track 13
     Filename I:\CD_lossless_my\Rhythm of the rainforest (2003)\13. Various - Silent Warrior.wav
     Pre-gap length  0:00:02.00
     Peak level 85.9 %
     Extraction speed 6.7 X
     Track quality 100.0 %
     Test CRC AF1D71BC
     Copy CRC AF1D71BC
     Track not present in AccurateRip database
     Copy OK
Track 14
     Filename I:\CD_lossless_my\Rhythm of the rainforest (2003)\14. Various - Song For The Ruins.wav
     Pre-gap length  0:00:02.00
     Peak level 100.0 %
     Extraction speed 7.4 X
     Track quality 100.0 %
     Test CRC 79A48791
     Copy CRC 79A48791
     Track not present in AccurateRip database
     Copy OK
Track 15
     Filename I:\CD_lossless_my\Rhythm of the rainforest (2003)\15. Various - Carolan's Ramble To Cashel.wav
     Pre-gap length  0:00:02.00
     Peak level 69.5 %
     Extraction speed 7.9 X
     Track quality 100.0 %
     Test CRC 9D2BCC11
     Copy CRC 9D2BCC11
     Track not present in AccurateRip database
     Copy OK
None of the tracks are present in the AccurateRip database
No errors occurred
End of status report
---- CUETools DB Plugin V2.1.6
[CTDB TOCID: KKVB0Wqbi7dHslHDZmo.oG3d7ec-] disk not present in database
Submit result: KKVB0Wqbi7dHslHDZmo.oG3d7ec- has been uploaded
==== Log checksum 96896B7132908731523C1AB31F495A28D012FAEB76F0F5D11A7483C5C6EF1054 ====
Код:
REM GENRE "New Age"
REM DATE 2003
REM DISCID DE11D40F
REM COMMENT "ExactAudioCopy v1.3"
PERFORMER "Various"
TITLE "Rhythm of the Rainforest"
REM COMPOSER ""
FILE "01. Various - Spirit Within.wav" WAVE
  TRACK 01 AUDIO
    TITLE "Spirit Within"
    PERFORMER "Various"
    REM COMPOSER ""
    FLAGS DCP
    INDEX 01 00:00:00
  TRACK 02 AUDIO
    TITLE "Wandering Piper"
    PERFORMER "Various"
    REM COMPOSER ""
    FLAGS DCP
    INDEX 00 05:07:60
FILE "02. Various - Wandering Piper.wav" WAVE
    INDEX 01 00:00:00
  TRACK 03 AUDIO
    TITLE "Moon Over Serengeti"
    PERFORMER "Various"
    REM COMPOSER ""
    FLAGS DCP
    INDEX 00 07:25:32
FILE "03. Various - Moon Over Serengeti.wav" WAVE
    INDEX 01 00:00:00
  TRACK 04 AUDIO
    TITLE "Heart Of The Rainforest"
    PERFORMER "Various"
    REM COMPOSER ""
    FLAGS DCP
    INDEX 00 06:20:43
FILE "04. Various - Heart Of The Rainforest.wav" WAVE
    INDEX 01 00:00:00
  TRACK 05 AUDIO
    TITLE "Medicine Man"
    PERFORMER "Various"
    REM COMPOSER ""
    FLAGS DCP
    INDEX 00 05:52:28
FILE "05. Various - Medicine Man.wav" WAVE
    INDEX 01 00:00:00
  TRACK 06 AUDIO
    TITLE "Morning Drum"
    PERFORMER "Various"
    REM COMPOSER ""
    FLAGS DCP
    INDEX 00 03:46:09
FILE "06. Various - Morning Drum.wav" WAVE
    INDEX 01 00:00:00
  TRACK 07 AUDIO
    TITLE "Shaman"
    PERFORMER "Various"
    REM COMPOSER ""
    FLAGS DCP
    INDEX 00 04:50:14
FILE "07. Various - Shaman.wav" WAVE
    INDEX 01 00:00:00
  TRACK 08 AUDIO
    TITLE "Prayer For Rain"
    PERFORMER "Various"
    REM COMPOSER ""
    FLAGS DCP
    INDEX 00 05:23:06
FILE "08. Various - Prayer For Rain.wav" WAVE
    INDEX 01 00:00:00
  TRACK 09 AUDIO
    TITLE "Night Of The Lion"
    PERFORMER "Various"
    REM COMPOSER ""
    FLAGS DCP
    INDEX 00 05:27:24
FILE "09. Various - Night Of The Lion.wav" WAVE
    INDEX 01 00:00:00
  TRACK 10 AUDIO
    TITLE "Kowando"
    PERFORMER "Various"
    REM COMPOSER ""
    FLAGS DCP
    INDEX 00 05:21:53
FILE "10. Various - Kowando.wav" WAVE
    INDEX 01 00:00:00
  TRACK 11 AUDIO
    TITLE "Sacred Chant"
    PERFORMER "Various"
    REM COMPOSER ""
    FLAGS DCP
    INDEX 00 05:31:66
FILE "11. Various - Sacred Chant.wav" WAVE
    INDEX 01 00:00:00
  TRACK 12 AUDIO
    TITLE "Mystic River"
    PERFORMER "Various"
    REM COMPOSER ""
    FLAGS DCP
    INDEX 00 04:10:51
FILE "12. Various - Mystic River.wav" WAVE
    INDEX 01 00:00:00
  TRACK 13 AUDIO
    TITLE "Silent Warrior"
    PERFORMER "Various"
    REM COMPOSER ""
    FLAGS DCP
    INDEX 00 04:34:53
FILE "13. Various - Silent Warrior.wav" WAVE
    INDEX 01 00:00:00
  TRACK 14 AUDIO
    TITLE "Song For The Ruins"
    PERFORMER "Various"
    REM COMPOSER ""
    FLAGS DCP
    INDEX 00 03:57:55
FILE "14. Various - Song For The Ruins.wav" WAVE
    INDEX 01 00:00:00
  TRACK 15 AUDIO
    TITLE "Carolan's Ramble To Cashel"
    PERFORMER "Various"
    REM COMPOSER ""
    FLAGS DCP
    INDEX 00 03:15:21
FILE "15. Various - Carolan's Ramble To Cashel.wav" WAVE
    INDEX 01 00:00:00
Правила, инструкции, FAQ!!!
Торрент  Добавлен [12 май 2019, 09:48] Скачать торрент Магнет ссылка
Скачать торрент
[ Размер 19.4 КБ / Просмотров 29 ]

Статус
Проверен 
 
Размер  451.93 МБ
Приватный: Нет (DHT включён)
.torrent скачан  3
Как залить торрент? | Как скачать Torrent? | Ошибка в торренте? Качайте магнет  


     Отправить личное сообщение
   
Страница 1 из 1
Показать сообщения за:  Поле сортировки  
Начать новую тему Ответить на тему


Сейчас этот форум просматривают: нет зарегистрированных пользователей и гости: 0


Вы не можете начинать темы
Вы не можете отвечать на сообщения
Вы не можете редактировать свои сообщения
Вы не можете удалять свои сообщения
Вы не можете добавлять вложения

Перейти:  
Ресурс не предоставляет электронные версии произведений, а занимается лишь коллекционированием и каталогизацией ссылок, присылаемых и публикуемых на форуме нашими читателями. Если вы являетесь правообладателем какого-либо представленного материала и не желаете чтобы ссылка на него находилась в нашем каталоге, свяжитесь с нами и мы незамедлительно удалим её. Файлы для обмена на трекере предоставлены пользователями сайта, и администрация не несёт ответственности за их содержание. Просьба не заливать файлы, защищенные авторскими правами, а также файлы нелегального содержания!