Начать новую тему Ответить на тему
Статистика раздачи
Размер: 347.72 МБ | Добавлен: 10 июл 2019, 09:02 | Скачали: 0
Сидеров: 0  [0 байт/сек]    Личеров: 0  [0 байт/сек]
Пред. тема | След. тема 

Автор
Сообщение

СообщениеДобавлено: 10 июл 2019, 09:02 

Ответить с цитатой 

Carptree - Subimago
Жанр: Neo-Prog
Носитель: CD
Страна-производитель диска (релиза): Sweden
Год издания: 2018
Издатель (лейбл): Reingold Records
Номер по каталогу: RRCD017
Страна исполнителя (группы): Sweden
Аудиокодек: FLAC (*.flac)
Тип рипа: tracks +.cue
Битрейт аудио: lossless
Продолжительность: 48:46
Источник (релизер): veushka
Наличие сканов в содержимом раздачи: да
Треклист:
1. Welcome (3:59)
2. By Your Own Device (5:31)
3. World Without Mind (7:23)
4. Instead Of Life (4:34)
5. Celestial Sky (6:38)
6. Someone Else's Play (4:42)
7. Eye Of The Storm (7:09) - not on LP
8. Sum Of All Senses (8:50)
Код:
Exact Audio Copy V1.0 beta 3 from 29. August 2011
EAC extraction logfile from 2. July 2019, 21:47
Carptree / Subimago
Used drive  : HL-DT-STDVDRAM GH24NSB0   Adapter: 3  ID: 0
Read mode               : Secure
Utilize accurate stream : Yes
Defeat audio cache      : Yes
Make use of C2 pointers : No
Read offset correction                      : 6
Overread into Lead-In and Lead-Out          : No
Fill up missing offset samples with silence : Yes
Delete leading and trailing silent blocks   : No
Null samples used in CRC calculations       : Yes
Used interface                              : Native Win32 interface for Win NT & 2000
Gap handling                                : Appended to previous track
Used output format              : User Defined Encoder
Selected bitrate                : 1024 kBit/s
Quality                         : High
Add ID3 tag                     : No
Command line compressor         : C:\Program Files\Exact Audio Copy\FLAC\FLAC.EXE
Additional command line options : -8 -V -T "ARTIST=%artist%" -T "TITLE=%title%" -T "ALBUM=%albumtitle%" -T "DATE=%year%" -T "TRACKNUMBER=%tracknr%" -T "TOTALTRACKS=%numtracks%" -T "GENRE=%genre%" -T "ALBUMARTIST=%albumartist%" -T "ALBUM ARTIST=%albumartist%" -T "COMMENT=EAC Secure Mode, Test & Copy, AccurateRip, FLAC -8" %source%
TOC of the extracted CD
     Track |   Start  |  Length  | Start sector | End sector
    ---------------------------------------------------------
        1  |  0:00.00 |  3:59.53 |         0    |    17977
        2  |  3:59.53 |  5:31.65 |     17978    |    42867
        3  |  9:31.43 |  7:23.42 |     42868    |    76134
        4  | 16:55.10 |  4:34.14 |     76135    |    96698
        5  | 21:29.24 |  6:38.08 |     96699    |   126556
        6  | 28:07.32 |  4:42.61 |    126557    |   147767
        7  | 32:50.18 |  7:09.74 |    147768    |   180016
        8  | 40:00.17 |  8:50.29 |    180017    |   219795
Track  1
     Filename F:\Veushka\Carptree - Subimago (2019) {RRCD017}\01 - Welcome.wav
     Pre-gap length  0:00:02.00
     Peak level 98.8 %
     Extraction speed 0.9 X
     Track quality 99.9 %
     Test CRC 4507389B
     Copy CRC 4507389B
     Track not present in AccurateRip database
     Copy OK
Track  2
     Filename F:\Veushka\Carptree - Subimago (2019) {RRCD017}\02 - By your own device.wav
     Peak level 98.9 %
     Extraction speed 1.2 X
     Track quality 100.0 %
     Test CRC AEFBFFB9
     Copy CRC AEFBFFB9
     Track not present in AccurateRip database
     Copy OK
Track  3
     Filename F:\Veushka\Carptree - Subimago (2019) {RRCD017}\03 - World without mind.wav
     Peak level 98.8 %
     Extraction speed 1.3 X
     Track quality 99.9 %
     Test CRC 47A25137
     Copy CRC 47A25137
     Track not present in AccurateRip database
     Copy OK
Track  4
     Filename F:\Veushka\Carptree - Subimago (2019) {RRCD017}\04 - Instead of life.wav
     Peak level 65.1 %
     Extraction speed 1.3 X
     Track quality 99.9 %
     Test CRC F85A02C8
     Copy CRC F85A02C8
     Track not present in AccurateRip database
     Copy OK
Track  5
     Filename F:\Veushka\Carptree - Subimago (2019) {RRCD017}\05 - Celestial sky.wav
     Peak level 98.8 %
     Extraction speed 1.6 X
     Track quality 100.0 %
     Test CRC 2646D4A9
     Copy CRC 2646D4A9
     Track not present in AccurateRip database
     Copy OK
Track  6
     Filename F:\Veushka\Carptree - Subimago (2019) {RRCD017}\06 - Someone elses play.wav
     Peak level 98.8 %
     Extraction speed 1.7 X
     Track quality 100.0 %
     Test CRC F482CBE4
     Copy CRC F482CBE4
     Track not present in AccurateRip database
     Copy OK
Track  7
     Filename F:\Veushka\Carptree - Subimago (2019) {RRCD017}\07 - Eye of the storm.wav
     Peak level 98.8 %
     Extraction speed 1.9 X
     Track quality 100.0 %
     Test CRC 4548DCB7
     Copy CRC 4548DCB7
     Track not present in AccurateRip database
     Copy OK
Track  8
     Filename F:\Veushka\Carptree - Subimago (2019) {RRCD017}\08 - Sum of all senses.wav
     Peak level 98.8 %
     Extraction speed 2.1 X
     Track quality 100.0 %
     Test CRC B6A81985
     Copy CRC B6A81985
     Track not present in AccurateRip database
     Copy OK
None of the tracks are present in the AccurateRip database
No errors occurred
End of status report
---- CUETools DB Plugin V2.1.3
[CTDB TOCID: kuhV46LQZuYqGRCO.NFnmJ7i5mw-] found, Submit result: kuhV46LQZuYqGRCO.NFnmJ7i5mw- has been confirmed
[948a1930] (11/11) Accurately ripped
==== Log checksum 1976D373A29504A1227C79D8BEC40B4F0981B2D9607AF6801997BB7D64CAB581 ====
Код:
REM DISCID 610B7208
REM COMMENT "ExactAudioCopy v1.0b3"
PERFORMER "Carptree"
TITLE "Subimago"
FILE "01 - Welcome.wav" WAVE
  TRACK 01 AUDIO
    TITLE "Welcome"
    PERFORMER "Carptree"
    FLAGS DCP
    INDEX 01 00:00:00
FILE "02 - By your own device.wav" WAVE
  TRACK 02 AUDIO
    TITLE "By your own device"
    PERFORMER "Carptree"
    FLAGS DCP
    INDEX 01 00:00:00
FILE "03 - World without mind.wav" WAVE
  TRACK 03 AUDIO
    TITLE "World without mind"
    PERFORMER "Carptree"
    FLAGS DCP
    INDEX 01 00:00:00
FILE "04 - Instead of life.wav" WAVE
  TRACK 04 AUDIO
    TITLE "Instead of life"
    PERFORMER "Carptree"
    FLAGS DCP
    INDEX 01 00:00:00
FILE "05 - Celestial sky.wav" WAVE
  TRACK 05 AUDIO
    TITLE "Celestial sky"
    PERFORMER "Carptree"
    FLAGS DCP
    INDEX 01 00:00:00
FILE "06 - Someone elses play.wav" WAVE
  TRACK 06 AUDIO
    TITLE "Someone elses play"
    PERFORMER "Carptree"
    FLAGS DCP
    INDEX 01 00:00:00
FILE "07 - Eye of the storm.wav" WAVE
  TRACK 07 AUDIO
    TITLE "Eye of the storm"
    PERFORMER "Carptree"
    FLAGS DCP
    INDEX 01 00:00:00
FILE "08 - Sum of all senses.wav" WAVE
  TRACK 08 AUDIO
    TITLE "Sum of all senses"
    PERFORMER "Carptree"
    FLAGS DCP
    INDEX 01 00:00:00
Код:
[CUETools log; Date: 08.07.2019 20:35:33; Version: 2.1.5]
[CTDB TOCID: kuhV46LQZuYqGRCO.NFnmJ7i5mw-] found.
Track | CTDB Status
  1   | (12/12) Accurately ripped
  2   | (12/12) Accurately ripped
  3   | (12/12) Accurately ripped
  4   | (12/12) Accurately ripped
  5   | (12/12) Accurately ripped
  6   | (12/12) Accurately ripped
  7   | (12/12) Accurately ripped
  8   | (12/12) Accurately ripped
[AccurateRip ID: 000dda2a-005e1086-610b7208] disk not present in database.
Track Peak [ CRC32  ] [W/O NULL] [  LOG   ]
 --   98,9 [02EE9769] [BB4B5EB1]
 01   98,8 [4507389B] [F103116E]   CRC32
 02   98,9 [AEFBFFB9] [0A149A65]   CRC32
 03   98,8 [47A25137] [9EAFB35C]   CRC32
 04   65,1 [F85A02C8] [831FD1FF]   CRC32
 05   98,8 [2646D4A9] [BF2AEC79]   CRC32
 06   98,8 [F482CBE4] [9AD1BCC2]   CRC32
 07   98,8 [4548DCB7] [C638FBD7]   CRC32
 08   98,8 [B6A81985] [9E750BC9]   CRC32
Код:
foobar2000 1.3.17 / Dynamic Range Meter 1.1.1
log date: 2019-07-08 20:37:26
--------------------------------------------------------------------------------
Analyzed: Carptree / Subimago
--------------------------------------------------------------------------------
DR         Peak         RMS     Duration Track
--------------------------------------------------------------------------------
DR8       -0.10 dB   -11.29 dB      4:00 01-Welcome
DR8       -0.10 dB   -11.34 dB      5:32 02-By your own device
DR9       -0.10 dB   -11.11 dB      7:24 03-World without mind
DR10      -3.73 dB   -16.55 dB      4:34 04-Instead of life
DR8       -0.10 dB    -9.67 dB      6:38 05-Celestial sky
DR8       -0.10 dB   -10.15 dB      4:43 06-Someone elses play
DR8       -0.10 dB   -11.40 dB      7:10 07-Eye of the storm
DR7       -0.10 dB    -9.15 dB      8:50 08-Sum of all senses
--------------------------------------------------------------------------------
Number of tracks:  8
Official DR value: DR8
Samplerate:        44100 Hz
Channels:          2
Bits per sample:   16
Bitrate:           984 kbps
Codec:             FLAC
================================================================================
- Nicklas Flinck / lead & backing vocals, composer, lyrics
- Carl Westholm / acoustic & electric pianos, guitar, tambourine, composer & arrangements, producer & mixing
With:
No Future Orchestra
- Ulf Edelönn / acoustic & electric guitars
- Stefan Fandén / 4 & 8 string bass, 6 string & 12 string guitars, bouzouki, synth
- Jesper Skarin / drums, percussion
- Cia Backman / backing vocals
- Öivin Tronstad / backing vocals
Правила, инструкции, FAQ!!!
Торрент  Добавлен [10 июл 2019, 09:02] Скачать торрент Магнет ссылка
Скачать торрент
[ Размер 15.33 КБ / Просмотров 7 ]

Статус
Проверен 
 
Размер  347.72 МБ
Приватный: Нет (DHT включён)
.torrent скачан  0
Как залить торрент? | Как скачать Torrent? | Ошибка в торренте? Качайте магнет  


     Отправить личное сообщение
   
Страница 1 из 1
Показать сообщения за:  Поле сортировки  
Начать новую тему Ответить на тему


Сейчас этот форум просматривают: нет зарегистрированных пользователей и гости: 0


Вы не можете начинать темы
Вы не можете отвечать на сообщения
Вы не можете редактировать свои сообщения
Вы не можете удалять свои сообщения
Вы не можете добавлять вложения

Перейти:  
Ресурс не предоставляет электронные версии произведений, а занимается лишь коллекционированием и каталогизацией ссылок, присылаемых и публикуемых на форуме нашими читателями. Если вы являетесь правообладателем какого-либо представленного материала и не желаете чтобы ссылка на него находилась в нашем каталоге, свяжитесь с нами и мы незамедлительно удалим её. Файлы для обмена на трекере предоставлены пользователями сайта, и администрация не несёт ответственности за их содержание. Просьба не заливать файлы, защищенные авторскими правами, а также файлы нелегального содержания!
cron