Начать новую тему Ответить на тему
Статистика раздачи
Размер: 2.02 ГБ | Добавлен: 10 сен 2019, 23:25 | Скачали: 0
Сидеров: 5  [0 байт/сек]    Личеров: 2  [0 байт/сек]
Пред. тема | След. тема 

Автор
Сообщение

СообщениеДобавлено: 10 сен 2019, 23:25 

Ответить с цитатой 


Festival Round Up



Жанр: Rock, Pop
Продолжительность: 00:43:40
Год выпуска: 2019
Качество: HDTV
Разрешение видео/развертка: 1080i
Контейнер: TS
Видео кодек: H.264
Аудио кодек: AC3
Видео: MPEG4 Video (H264) 1920x1080 29.97fps 6 105 kb/s
Аудио: Dolby AC3 48000Hz stereo 192kbps
The 1975 - Tootimetootimetootime
The 1975 - Love It If We Made It
Biffy Clyro - Bubbles
Jungle - Time
Joria Smith - Blue Lights
MO - Final Song
The Cure - Pictures Of You
J Balvin - Mi Gente
Afrojack - It Goes Like
Код:
General
ID                             : 1 (0x1)
Complete name                  : I:\MTV World Stage - (Sextas De Festival) Festival Round Up 2019  .ts
Format                         : MPEG-TS
File size                      : 2.02 GiB
Duration                       : 43 min 40 s
Overall bit rate mode          : Variable
Overall bit rate               : 6 626 kb/s
Video
ID                             : 4128 (0x1020)
Menu ID                        : 5040 (0x13B0)
Format                         : AVC
Format/Info                    : Advanced Video Codec
Format profile                 : High@L4
Format settings                : CABAC / 3 Ref Frames
Format settings, CABAC         : Yes
Format settings, Reference fra : 3 frames
Codec ID                       : 27
Duration                       : 43 min 40 s
Bit rate                       : 6 105 kb/s
Width                          : 1 920 pixels
Height                         : 1 080 pixels
Display aspect ratio           : 16:9
Frame rate                     : 29.970 (30000/1001) FPS
Color space                    : YUV
Chroma subsampling             : 4:2:0
Bit depth                      : 8 bits
Scan type                      : MBAFF
Scan type, store method        : Interleaved fields
Scan order                     : Top Field First
Bits/(Pixel*Frame)             : 0.098
Stream size                    : 1.86 GiB (92%)
Audio
ID                             : 4130 (0x1022)
Menu ID                        : 5040 (0x13B0)
Format                         : AC-3
Format/Info                    : Audio Coding 3
Commercial name                : Dolby Digital
Codec ID                       : 129
Duration                       : 43 min 40 s
Bit rate mode                  : Constant
Bit rate                       : 192 kb/s
Channel(s)                     : 2 channels
Channel layout                 : L R
Sampling rate                  : 48.0 kHz
Frame rate                     : 31.250 FPS (1536 SPF)
Bit depth                      : 16 bits
Compression mode               : Lossy
Stream size                    : 60.0 MiB (3%)
Language                       : English
Service kind                   : Complete Main
Правила, инструкции, FAQ!!!
Торрент  Добавлен [10 сен 2019, 23:25] Скачать торрент Магнет ссылка
Скачать торрент
[ Размер 10.6 КБ / Просмотров 5 ]

Статус
Проверен 
 
Размер  2.02 ГБ
Приватный: Нет (DHT включён)
.torrent скачан  0
Как залить торрент? | Как скачать Torrent? | Ошибка в торренте? Качайте магнет  


     Отправить личное сообщение
   
Страница 1 из 1
Показать сообщения за:  Поле сортировки  
Начать новую тему Ответить на тему


Сейчас этот форум просматривают: нет зарегистрированных пользователей и гости: 3


Вы не можете начинать темы
Вы не можете отвечать на сообщения
Вы не можете редактировать свои сообщения
Вы не можете удалять свои сообщения
Вы не можете добавлять вложения

Перейти:  
Ресурс не предоставляет электронные версии произведений, а занимается лишь коллекционированием и каталогизацией ссылок, присылаемых и публикуемых на форуме нашими читателями. Если вы являетесь правообладателем какого-либо представленного материала и не желаете чтобы ссылка на него находилась в нашем каталоге, свяжитесь с нами и мы незамедлительно удалим её. Файлы для обмена на трекере предоставлены пользователями сайта, и администрация не несёт ответственности за их содержание. Просьба не заливать файлы, защищенные авторскими правами, а также файлы нелегального содержания!