Начать новую тему Ответить на тему
Статистика раздачи
Размер: 1.06 ГБ | Добавлен: 08 июн 2019, 08:56 | Скачали: 1
Сидеров: 0  [0 байт/сек]    Личеров: 0  [0 байт/сек]
Пред. тема | След. тема 

Автор
Сообщение

СообщениеДобавлено: 08 июн 2019, 08:56 

Ответить с цитатой 

Jean-Efflam Bavouzet, Manchester Camerata, Gabor Takacs-Nagy / Mozart - Piano Concertos, Vol. 4
Формат записи/Источник записи: [TR24][OF]
Наличие водяных знаков: Нет
Год издания/переиздания диска: 2019
Жанр: Classical
Издатель (лейбл): Chandos
Продолжительность: 01:05:05
Наличие сканов в содержимом раздачи: Буклет PDF
Треклист:
Mozart: Piano Concerto No. 21 in C major, K467 'Elvira Madigan' 28:05
01. I. Allegro maestoso 14:37
02. II. Andante 6:40
03. III. Allegro vivace assai 6:48
04. Mozart: Don Giovanni, K527: Overture 5:54
Mozart: Piano Concerto No. 20 in D minor, K466 31:06
05. I. Allegro 14:26
06. II. Romance 8:58
07. III. Allegro assai 7:42
Manchester Camerata
Gábor Takács-Nagy
Jean-Efflam Bavouzet (piano)
Контейнер: FLAC (*.flac)
Тип рипа: tracks
Разрядность: 24/96
Формат: PCM
Количество каналов: 2.0
Код:
foobar2000 1.4.3 / Dynamic Range Meter 1.1.1
log date: 2019-05-30 10:36:21
--------------------------------------------------------------------------------
Analyzed: Jean-Efflam Bavouzet, Manchester Camerata & Gábor Takács-Nagy / Mozart: Piano Concertos, Vol. 4
--------------------------------------------------------------------------------
DR         Peak         RMS     Duration Track
--------------------------------------------------------------------------------
DR14      -4.26 dB   -24.44 dB     14:37 01-Piano Concerto No. 21 in C Major, K. 467: I. Allegro maestoso
DR13     -10.52 dB   -29.51 dB      6:41 02-Piano Concerto No. 21 in C Major, K. 467: II. Andante
DR16      -2.09 dB   -24.79 dB      6:49 03-Piano Concerto No. 21 in C Major, K. 467: III. Allegro vivace assai
DR13      -2.84 dB   -22.92 dB      5:55 04-Don Giovanni, K. 527: Overture
DR16      -1.62 dB   -24.29 dB     14:26 05-Piano Concerto No. 20 in D Minor, K. 466: I. Allegro
DR15      -6.39 dB   -26.60 dB      8:58 06-Piano Concerto No. 20 in D Minor, K. 466: II. Romance
DR17      -0.73 dB   -23.45 dB      7:43 07-Piano Concerto No. 20 in D Minor, K. 466: III. Allegro assai
--------------------------------------------------------------------------------
Number of tracks:  7
Official DR value: DR15
Samplerate:        96000 Hz
Channels:          2
Bits per sample:   24
Bitrate:           2336 kbps
Codec:             FLAC
================================================================================
Источник (релизер): https://www.qobuz.com/us-en/album/mozart-piano-concertos-vol-4-gabor-takacs-nagy-...et/zty5hztn99e4a
Правила, инструкции, FAQ!!!
Торрент  Добавлен [08 июн 2019, 08:56] Скачать торрент Магнет ссылка
Скачать торрент
[ Размер 43.44 КБ / Просмотров 6 ]

Статус
Проверен 
 
Размер  1.06 ГБ
Приватный: Нет (DHT включён)
.torrent скачан  1
Как залить торрент? | Как скачать Torrent? | Ошибка в торренте? Качайте магнет  


     Отправить личное сообщение
   
Страница 1 из 1
Показать сообщения за:  Поле сортировки  
Начать новую тему Ответить на тему


Сейчас этот форум просматривают: нет зарегистрированных пользователей и гости: 0


Вы не можете начинать темы
Вы не можете отвечать на сообщения
Вы не можете редактировать свои сообщения
Вы не можете удалять свои сообщения
Вы не можете добавлять вложения

Перейти:  
Ресурс не предоставляет электронные версии произведений, а занимается лишь коллекционированием и каталогизацией ссылок, присылаемых и публикуемых на форуме нашими читателями. Если вы являетесь правообладателем какого-либо представленного материала и не желаете чтобы ссылка на него находилась в нашем каталоге, свяжитесь с нами и мы незамедлительно удалим её. Файлы для обмена на трекере предоставлены пользователями сайта, и администрация не несёт ответственности за их содержание. Просьба не заливать файлы, защищенные авторскими правами, а также файлы нелегального содержания!
cron