Начать новую тему Ответить на тему
Статистика раздачи
Размер: 1.13 ГБ | Добавлен: 08 июн 2019, 08:56 | Скачали: 1
Сидеров: 0  [0 байт/сек]    Личеров: 0  [0 байт/сек]
Пред. тема | След. тема 

Автор
Сообщение

СообщениеДобавлено: 08 июн 2019, 08:56 

Ответить с цитатой 

Jean-Efflam Bavouzet, Manchester Camerata, Gabor Takacs-Nagy / Mozart - Piano Concertos, Vol. 2
Формат записи/Источник записи: [TR24][OF]
Наличие водяных знаков: Нет
Год издания/переиздания диска: 2017
Жанр: Classical
Издатель (лейбл): Chandos
Продолжительность: 01:09:25
Наличие сканов в содержимом раздачи: Буклет PDF
Треклист:
Mozart: Piano Concerto No. 14 in E flat major, K449 21:11
01. I. Allegro vivace 8:37
02. II. Andantino 6:14
03. III. Allegro ma non troppo 6:20
Mozart: Divertimento in D major, K136 12:27
04. I. Allegro 3:59
05. II. Andante 5:41
06. III. Presto 2:47
Mozart: Divertimento in F major, K138 9:59
07. I. Allegro 3:44
08. II. Andante 4:08
09. III. Presto 2:07
Mozart: Piano Concerto No. 19 in F major, K459 25:48
10. I. Allegro 12:15
11. II. Allegretto 6:07
12. III. Allegro assai 7:26
Manchester Camerata
Gábor Takács-Nagy
Jean-Efflam Bavouzet (piano)
Recorded: 6-7 March 2017
Recording Venue: Royal Northern College of Music Concert Hall, Manchester, UK
Контейнер: FLAC (*.flac)
Тип рипа: tracks
Разрядность: 24/96
Формат: PCM
Количество каналов: 2.0
Код:
foobar2000 1.4.3 / Dynamic Range Meter 1.1.1
log date: 2019-05-31 14:46:34
--------------------------------------------------------------------------------
Analyzed: Jean-Efflam Bavouzet / Mozart: Piano Concertos, Vol. 2 (1-6)
          Manchester Camerata / Mozart: Piano Concertos, Vol. 2 (7-12)
--------------------------------------------------------------------------------
DR         Peak         RMS     Duration Track
--------------------------------------------------------------------------------
DR15      -3.23 dB   -23.21 dB      8:37 01-Piano Concerto No. 14 in E-Flat Major, K. 449: I. Allegro vivace
DR14      -4.89 dB   -26.95 dB      6:15 02-Piano Concerto No. 14 in E-Flat Major, K. 449: II. Andantino
DR16      -1.69 dB   -23.12 dB      6:21 03-Piano Concerto No. 14 in E-Flat Major, K. 449: III. Allegro ma non troppo
DR14      -2.82 dB   -22.51 dB     12:16 10-Piano Concerto No. 19 in F Major, K. 459: I. Allegro
DR13      -7.04 dB   -25.35 dB      6:07 11-Piano Concerto No. 19 in F Major, K. 459: II. Allegretto
DR15      -2.77 dB   -22.15 dB      7:26 12-Piano Concerto No. 19 in F Major, K. 459: III. Allegro assai
DR13     -10.20 dB   -28.39 dB      3:59 04-Divertimento in D Major, K. 136 "Salzburg Symphony No. 1": I. Allegro
DR14     -13.55 dB   -32.52 dB      5:42 05-Divertimento in D Major, K. 136 "Salzburg Symphony No. 1": II. Andante
DR16      -7.76 dB   -27.44 dB      2:47 06-Divertimento in D Major, K. 136 "Salzburg Symphony No. 1": III. Presto
DR15      -7.13 dB   -28.08 dB      3:44 07-Divertimento in F Major, K. 138 "Salzburg Symphony No. 3": I. Allegro
DR15     -11.02 dB   -31.58 dB      4:08 08-Divertimento in F Major, K. 138 "Salzburg Symphony No. 3": II. Andante
DR15      -8.47 dB   -28.41 dB      2:08 09-Divertimento in F Major, K. 138 "Salzburg Symphony No. 3": III. Presto
--------------------------------------------------------------------------------
Number of tracks:  12
Official DR value: DR15
Samplerate:        96000 Hz
Channels:          2
Bits per sample:   24
Bitrate:           2278 kbps
Codec:             FLAC
================================================================================
Источник (релизер): https://www.prestomusic.com/classical/products/8347643--mozart-piano-concertos-vol-2
Правила, инструкции, FAQ!!!
Торрент  Добавлен [08 июн 2019, 08:56] Скачать торрент Магнет ссылка
Скачать торрент
[ Размер 47.18 КБ / Просмотров 7 ]

Статус
Проверен 
 
Размер  1.13 ГБ
Приватный: Нет (DHT включён)
.torrent скачан  1
Как залить торрент? | Как скачать Torrent? | Ошибка в торренте? Качайте магнет  


     Отправить личное сообщение
   
Страница 1 из 1
Показать сообщения за:  Поле сортировки  
Начать новую тему Ответить на тему


Сейчас этот форум просматривают: нет зарегистрированных пользователей и гости: 0


Вы не можете начинать темы
Вы не можете отвечать на сообщения
Вы не можете редактировать свои сообщения
Вы не можете удалять свои сообщения
Вы не можете добавлять вложения

Перейти:  
Ресурс не предоставляет электронные версии произведений, а занимается лишь коллекционированием и каталогизацией ссылок, присылаемых и публикуемых на форуме нашими читателями. Если вы являетесь правообладателем какого-либо представленного материала и не желаете чтобы ссылка на него находилась в нашем каталоге, свяжитесь с нами и мы незамедлительно удалим её. Файлы для обмена на трекере предоставлены пользователями сайта, и администрация не несёт ответственности за их содержание. Просьба не заливать файлы, защищенные авторскими правами, а также файлы нелегального содержания!
cron