Начать новую тему Ответить на тему
Статистика раздачи
Размер: 323.46 МБ | Добавлен: 20 июл 2019, 06:28 | Скачали: 0
Сидеров: 6  [0 байт/сек]    Личеров: 2  [0 байт/сек]
Пред. тема | След. тема 

Автор
Сообщение

СообщениеДобавлено: 20 июл 2019, 06:28 

Ответить с цитатой 

Ebony Tears / Evil As Hell
Жанр: Melodic Death Metal
Год издания диска: 2001
Страна: Sweden
Аудио кодек: FLAC (*.flac)
Тип рипа: image+.cue
Битрейт аудио: lossless
Продолжительность: 40:07
Источник (релизер): Original CD
Наличие сканов в содержимом раздачи: да
Треклист:
01. Deviation
02. Soulcrusher
03. Outraged
04. Negative Creep
05. Lowdown
06. Hands of Doom
07. Lucified... Evil as Hell
08. Demon Ride
Код:
EAC extraction logfile from 3. September 2005, 1:47 for CD
Ebony Tears / Evil as Hell
Used drive  : HL-DT-STCD-RW GCE-8526B   Adapter: 1  ID: 0
Read mode   : Secure with NO C2, accurate stream, disable cache
Read offset correction : 6
Overread into Lead-In and Lead-Out : No
Used output format : Internal WAV Routines
                     44.100 Hz; 16 Bit; Stereo
                     Use compression offset : 0
Other options      :
    Fill up missing offset samples with silence : Yes
    Delete leading and trailing silent blocks : No
    Installed external ASPI interface
Range status and errors
Selected range
     Filename E:\audio\temp\evil\CDImage.wav
     Peak level 98.8 %
     Range quality 100.0 %
     CRC 4A94D366
     Copy OK
No errors occured
End of status report
Код:
REM GENRE Metal
REM DATE 2001
REM DISCID 4F096908
REM COMMENT "ExactAudioCopy v0.95b2"
PERFORMER "Ebony Tears"
TITLE "Evil as Hell"
FILE "CDImage.wav" WAVE
  TRACK 01 AUDIO
    TITLE "Deviation"
    PERFORMER "Ebony Tears"
    INDEX 01 00:00:00
  TRACK 02 AUDIO
    TITLE "Soulcrusher"
    PERFORMER "Ebony Tears"
    INDEX 00 05:03:28
    INDEX 01 05:04:10
  TRACK 03 AUDIO
    TITLE "Outraged"
    PERFORMER "Ebony Tears"
    INDEX 01 09:20:58
  TRACK 04 AUDIO
    TITLE "Negative Creep"
    PERFORMER "Ebony Tears"
    INDEX 00 15:01:14
    INDEX 01 15:01:60
  TRACK 05 AUDIO
    TITLE "Lowdown"
    PERFORMER "Ebony Tears"
    INDEX 00 20:12:48
    INDEX 01 20:12:49
  TRACK 06 AUDIO
    TITLE "Hands of Doom"
    PERFORMER "Ebony Tears"
    INDEX 00 25:38:67
    INDEX 01 25:39:57
  TRACK 07 AUDIO
    TITLE "Lucified... Evil as Hell"
    PERFORMER "Ebony Tears"
    INDEX 01 30:35:13
  TRACK 08 AUDIO
    TITLE "Demon Ride"
    PERFORMER "Ebony Tears"
    INDEX 00 35:00:37
    INDEX 01 35:00:44

Johnny Wranning - vocals
Conny Jonsson - guitars
Peter Kahm - bass
Richard Evensand - drums
Правила, инструкции, FAQ!!!
Торрент  Добавлен [20 июл 2019, 06:28] Скачать торрент Магнет ссылка
Скачать торрент
[ Размер 13.47 КБ / Просмотров 8 ]

Статус
Проверен 
 
Размер  323.46 МБ
Приватный: Нет (DHT включён)
.torrent скачан  0
Как залить торрент? | Как скачать Torrent? | Ошибка в торренте? Качайте магнет  


     Отправить личное сообщение
   

СообщениеДобавлено: 09 окт 2019, 23:38 

Ответить с цитатой 

Зарегистрированные пользователи
Зарегистрированные пользователи

Стаж: 9 дней
Раздал: 4.47 ГБ
Скачал: 0 байт
Ратио: Seed.
Торренты: 0
На данном трекере очень много полезного материала! но, к сожалению, мало Сидиров! невозможно подключиться к пирам! раздайте пожалуйста :ak:


Профиль     Отправить личное сообщение
   

СообщениеДобавлено: 10 окт 2019, 00:51 

Ответить с цитатой 

Администратор
Администратор
Аватара пользователя

Стаж: 7 лет 2 дня
Раздал: 290.91 ГБ
Скачал: 158.38 ГБ
Ратио: 1.837
Торренты: 13
Вот еще раздача http://waspeer.info/melodic-death-metal ... 28293.html

Используйте поиск

Оставьте на закачке, ждите раздающих

_________________
Не скачивается раздача? напишите об этом в теме!


Профиль     Отправить личное сообщение
   
Страница 1 из 1
Показать сообщения за:  Поле сортировки  
Начать новую тему Ответить на тему


Сейчас этот форум просматривают: нет зарегистрированных пользователей и гости: 0


Вы не можете начинать темы
Вы не можете отвечать на сообщения
Вы не можете редактировать свои сообщения
Вы не можете удалять свои сообщения
Вы не можете добавлять вложения

Перейти:  
Ресурс не предоставляет электронные версии произведений, а занимается лишь коллекционированием и каталогизацией ссылок, присылаемых и публикуемых на форуме нашими читателями. Если вы являетесь правообладателем какого-либо представленного материала и не желаете чтобы ссылка на него находилась в нашем каталоге, свяжитесь с нами и мы незамедлительно удалим её. Файлы для обмена на трекере предоставлены пользователями сайта, и администрация не несёт ответственности за их содержание. Просьба не заливать файлы, защищенные авторскими правами, а также файлы нелегального содержания!
cron