Начать новую тему Ответить на тему
Статистика раздачи
Размер: 1.23 ГБ | Добавлен: 08 июн 2019, 08:57 | Скачали: 1
Сидеров: 34  [0 байт/сек]    Личеров: 11  [0 байт/сек]
Пред. тема | След. тема 

Автор
Сообщение

СообщениеДобавлено: 08 июн 2019, 08:57 

Ответить с цитатой 

Lorenda Ramou / From Berlin to Athens - Piano Works by Nikos Skalkottas
Формат записи/Источник записи: [TR24][OF]
Наличие водяных знаков: Нет
Год издания/переиздания диска: 2019
Жанр: Classical
Издатель (лейбл): BIS Records
Продолжительность: 01:27:31
Наличие сканов в содержимом раздачи: Буклет PDF
Skalkottas: Griechische Suite 7:22
01. I. Allegretto 3:00
02. II. Andantino 2:01
03. III. Presto - Andantino 2:21
Skalkottas: Suite (1924) 13:00
04. I. — [Fragment] 3:07
05. II. Molto moderato 4:50
06. III. Shimmy Tempo 5:03
Skalkottas: Sonatina for Piano 7:26
07. I. Allegretto vivace 1:24
08. II. Siciliano 2:46
09. III. Finale 3:16
10. Skalkottas: 15 Little Variations for Piano 8:33
Skalkottas: Suite No. 2 9:04
11. I. Largo 2:09
12. II. Gavottes I & II 2:19
13. III. Rapsodie. Molto moderato 1:32
14. IV. Marsch. Allegro 3:04
Skalkottas: Suite No. 3 12:05
15. I. Menuetto 3:09
16. II. Thema con variazioni. Lento 2:23
17. III. Marcia funebra. Maestoso 4:57
18. IV. Finale. Allegro vivace 1:36
Skalkottas: Suite No. 4 7:49
19. I. Toccata. Vivace 1:08
20. II. Andantino. Con grazia 2:00
21. III. Polka. Tempo di polka moderato 1:47
22. IV. Serenade. Allegro moderato 2:54
Skalkottas: The Gnomes, ballet music 22:12
23. I. Introduction 1:09
24. II. Exertion 2:41
25. III. Majestic Dance 2:31
26. IV. Fast Cretan Dance 2:18
27. V. Intermezzo lirico 2:52
28. VI. Finale I 2:55
29. I. Epilogue 1:34
30. II. Intermezzo (Chorale) 4:08
31. III. Finale II 2:04

Lorenda Ramou (piano)
Контейнер: FLAC (*.flac)
Тип рипа: tracks
Разрядность: 24/96
Формат: PCM
Количество каналов: 2.0
Код:
foobar2000 1.4.3 / Dynamic Range Meter 1.1.1
log date: 2019-06-07 21:46:20
--------------------------------------------------------------------------------
Analyzed: Lorenda Ramou / From Berlin to Athens: Piano Works by Nikos Skalkottas
--------------------------------------------------------------------------------
DR         Peak         RMS     Duration Track
--------------------------------------------------------------------------------
DR12      -6.08 dB   -23.28 dB      3:00 01-Greek Suite, AK 79a: I. Allegretto
DR12      -9.07 dB   -27.40 dB      2:02 02-Greek Suite, AK 79a: II. Andantino
DR12      -3.35 dB   -20.60 dB      2:21 03-Greek Suite, AK 79a: III. Presto - Andantino
DR12      -2.21 dB   -21.42 dB      3:08 04-I. — [Fragment]
DR12      -7.30 dB   -25.95 dB      4:50 05-II. Molto moderato
DR12      -0.53 dB   -19.20 dB      5:04 06-III. Shimmy Tempo
DR12      -4.21 dB   -22.20 dB      1:25 07-Piano Sonatina, AK 75b: I. Allegretto vivace
DR12      -5.66 dB   -23.53 dB      2:46 08-Piano Sonatina, AK 75b: II. Siciliano
DR13      -6.34 dB   -24.56 dB      3:17 09-Piano Sonatina, AK 75b: III. Finale
DR14      -5.47 dB   -26.88 dB      8:33 10-15 Small Variations, AK 75c
DR12      -6.26 dB   -25.66 dB      2:09 11-Piano Suite No. 2, AK 72: I. Largo
DR12      -5.09 dB   -21.11 dB      2:19 12-Piano Suite No. 2, AK 72: II. Gavottes I & II
DR12      -3.61 dB   -21.64 dB      1:33 13-Piano Suite No. 2, AK 72: III. Rapsodie. Molto moderato
DR13      -4.12 dB   -21.13 dB      3:04 14-Piano Suite No. 2, AK 72: IV. Marsch. Allegro
DR13      -2.65 dB   -23.37 dB      3:09 15-Piano Suite No. 3, AK 73: I. Menuetto
DR14      -4.39 dB   -26.17 dB      2:23 16-Piano Suite No. 3, AK 73: II. Thema con variazioni. Lento
DR16      -3.65 dB   -27.91 dB      4:57 17-Piano Suite No. 3, AK 73: III. Marcia funebra. Maestoso
DR13      -3.45 dB   -20.20 dB      1:37 18-Piano Suite No. 3, AK 73: IV. Finale. Allegro vivace
DR12      -2.54 dB   -19.01 dB      1:09 19-Piano Suite No. 4, AK 74: I. Toccata. Vivace
DR12     -11.46 dB   -28.64 dB      2:01 20-Piano Suite No. 4, AK 74: II. Andantino. Con grazia
DR13      -3.62 dB   -21.15 dB      1:47 21-Piano Suite No. 4, AK 74: III. Polka. Tempo di polka moderato
DR12      -6.78 dB   -24.56 dB      2:54 22-Piano Suite No. 4, AK 74: IV. Serenade. Allegro moderato
DR13      -4.35 dB   -20.15 dB      1:09 23-Dance Suite from "The Gnomes", Pt. 1: I. Introduction
DR12      -5.24 dB   -20.82 dB      2:42 24-Dance Suite from "The Gnomes", Pt. 1: II. Exertion
DR12      -2.38 dB   -18.42 dB      2:31 25-Dance Suite from "The Gnomes", Pt. 1: III. Majestic Dance
DR13      -2.74 dB   -20.58 dB      2:18 26-Dance Suite from "The Gnomes", Pt. 1: IV. Fast Cretan Dance
DR13      -4.30 dB   -22.90 dB      2:52 27-Dance Suite from "The Gnomes", Pt. 1: V. Intermezzo lirico
DR13      -4.03 dB   -21.76 dB      2:55 28-Dance Suite from "The Gnomes", Pt. 1: VI. Finale I
DR12      -5.27 dB   -22.22 dB      1:35 29-Dance Suite from "The Gnomes", Pt. 2: I. Epilogue
DR14      -1.66 dB   -22.45 dB      4:08 30-Dance Suite from "The Gnomes", Pt. 2: II. Intermezzo (Chorale)
DR12      -5.24 dB   -19.25 dB      2:04 31-Dance Suite from "The Gnomes", Pt. 2: III. Finale II
--------------------------------------------------------------------------------
Number of tracks:  31
Official DR value: DR13
Samplerate:        96000 Hz
Channels:          2
Bits per sample:   24
Bitrate:           2080 kbps
Codec:             FLAC
================================================================================
Источник (релизер): https://www.prestomusic.com/classical/products/8617739--from-berlin-to-athens
Правила, инструкции, FAQ!!!
Торрент  Добавлен [08 июн 2019, 08:57] Скачать торрент Магнет ссылка
Скачать торрент
[ Размер 27.76 КБ / Просмотров 6 ]

Статус
Проверен 
 
Размер  1.23 ГБ
Приватный: Нет (DHT включён)
.torrent скачан  1
Как залить торрент? | Как скачать Torrent? | Ошибка в торренте? Качайте магнет  


     Отправить личное сообщение
   
Страница 1 из 1
Показать сообщения за:  Поле сортировки  
Начать новую тему Ответить на тему


Сейчас этот форум просматривают: нет зарегистрированных пользователей и гости: 0


Вы не можете начинать темы
Вы не можете отвечать на сообщения
Вы не можете редактировать свои сообщения
Вы не можете удалять свои сообщения
Вы не можете добавлять вложения

Перейти:  
Ресурс не предоставляет электронные версии произведений, а занимается лишь коллекционированием и каталогизацией ссылок, присылаемых и публикуемых на форуме нашими читателями. Если вы являетесь правообладателем какого-либо представленного материала и не желаете чтобы ссылка на него находилась в нашем каталоге, свяжитесь с нами и мы незамедлительно удалим её. Файлы для обмена на трекере предоставлены пользователями сайта, и администрация не несёт ответственности за их содержание. Просьба не заливать файлы, защищенные авторскими правами, а также файлы нелегального содержания!
cron