Начать новую тему Ответить на тему
Статистика раздачи
Размер: 678 МБ | Добавлен: 08 июн 2019, 08:57 | Скачали: 2
Сидеров: 3  [0 байт/сек]    Личеров: 0  [0 байт/сек]
Пред. тема | След. тема 

Автор
Сообщение

СообщениеДобавлено: 08 июн 2019, 08:57 

Ответить с цитатой 

Lisa Batiashvili / Bach
Формат записи/Источник записи: [TR24][OF]
Наличие водяных знаков: Нет
Год издания/переиздания диска: 2014
Жанр: Classical
Издатель (лейбл): Deutsche Grammophon
Продолжительность: 1:09:11
Наличие сканов в содержимом раздачи: Буклет PDF
Треклист:
Bach, J S: Concerto For 2 Harpsichords, Strings, And Continuo In C Minor, BWV 1060 - Reconstruction For Oboe, Violin, Strings & Continuo 12:10
01. 1. Allegro 4:31
02. 2. Adagio 4:25
03. 3. Allegro 3:14
04. Bach, J S: Cantata BWV156 'Ich steh mit einem Fuß im Grabe' - Sinfonia (Arr. For Violin, Strings And Continuo) 2:45
Bach, J S: Violin Concerto No. 2 in E major, BWV1042 15:53
05. 1. Allegro 7:10
06. 2. Adagio 6:04
07. 3. Allegro assai 2:39
Bach, J S: Sonata for solo violin No. 2 in A minor, BWV1003 22:33
08. 1. Grave 4:29
09. 2. Fuga 7:46
10. 3. Andante 5:51
11. 4. Allegro 4:27
Bach, C P E: Trio Sonata In B Minor For Flute, Violin And Continuo, Wq.143 8:59
12. 1. Allegro 3:48
13. 2. Adagio 2:57
14. 3. Presto 2:14
15. Bach, J S: St Matthew Passion, BWV244 - No.39 Aria: "Erbarme dich" (Arr. For Oboe d’amore, Violin, Strings And Continuo) 6:51
Lisa Batiashvili (violin), François Leleux (oboe), Emmanuel Pahud (flute), Peter Kofler
Kammerorchester des Bayerischen Rundfunks, Radoslaw Szulc
Контейнер: FLAC (*.flac)
Тип рипа: tracks
Разрядность: 24/44,1
Формат: PCM
Количество каналов: 4.0
Код:
foobar2000 1.4.3 / Dynamic Range Meter 1.1.1
log date: 2019-06-06 10:46:57
--------------------------------------------------------------------------------
Analyzed: Emmanuel Pahud & Peter Kofler & Lisa Batiashvili & Sebastian Klinger / Bach (1)
          Emmanuel Pahud & Sebastian Klinger & Lisa Batiashvili & Peter Kofler / Bach (2)
          François Leleux & Lisa Batiashvili & Radoslaw Szulc & Kammerorchester des Bayerischen Rundfunks / Bach (3)
          Lisa Batiashvili & Kammerorchester des Bayerischen Rundfunks & François Leleux & Radoslaw Szulc / Bach (4)
          Lisa Batiashvili & Peter Kofler & Emmanuel Pahud & Sebastian Klinger / Bach (5)
          Lisa Batiashvili & Radoslaw Szulc & Kammerorchester des Bayerischen Rundfunks / Bach (6-7)
          Lisa Batiashvili / Bach (8-11)
          Radoslaw Szulc & Kammerorchester des Bayerischen Rundfunks & François Leleux & Lisa Batiashvili / Bach (12)
          Radoslaw Szulc & Kammerorchester des Bayerischen Rundfunks & Lisa Batiashvili & François Leleux / Bach (13)
          Radoslaw Szulc & Kammerorchester des Bayerischen Rundfunks & Lisa Batiashvili / Bach (14-15)
--------------------------------------------------------------------------------
DR         Peak         RMS     Duration Track
--------------------------------------------------------------------------------
DR13      -3.05 dB   -18.85 dB      2:15 14-C.P.E. Bach: Trio Sonata In B Minor For Flute, Violin And Continuo, Wq.143-3. Presto
DR12      -2.48 dB   -19.36 dB      2:58 13-C.P.E. Bach: Trio Sonata In B Minor For Flute, Violin And Continuo, Wq.143-2. Adagio
DR12      -4.19 dB   -22.52 dB      6:51 15-J.S. Bach: St. Matthew Passion, BWV 244 / Part Two-No.39 Aria: "Erbarme dich" (Arr. For Oboe d’amore, Violin, Strings And Continuo)
DR14      -0.10 dB   -18.60 dB      3:14 03-J.S. Bach: Concerto For 2 Harpsichords, Strings, And Continuo In C Minor, BWV 1060-Reconstruction For Oboe, Violin, Strings & Continuo-3. Allegro
DR13      -1.59 dB   -18.31 dB      3:49 12-C.P.E. Bach: Trio Sonata In B Minor For Flute, Violin And Continuo, Wq.143-1. Allegro
DR14      -3.20 dB   -24.02 dB      2:45 04-J.S. Bach: Cantata "Ich steh mit einem Fuß im Grabe" BWV 156-Sinfonia (Arr. For Violin, Strings And Continuo)
DR14      -1.43 dB   -21.59 dB      6:04 06-J.S. Bach: Violin Concerto No.2 In E, BWV 1042-2. Adagio
DR14      -5.19 dB   -23.69 dB      4:29 08-J.S. Bach: Sonata For Violin Solo No.2 In A Minor, BWV 1003-1. Grave
DR13      -2.40 dB   -19.75 dB      7:47 09-J.S. Bach: Sonata For Violin Solo No.2 In A Minor, BWV 1003-2. Fuga
DR14      -8.33 dB   -27.74 dB      5:51 10-J.S. Bach: Sonata For Violin Solo No.2 In A Minor, BWV 1003-3. Andante
DR13      -3.69 dB   -20.39 dB      4:27 11-J.S. Bach: Sonata For Violin Solo No.2 In A Minor, BWV 1003-4. Allegro
DR14      -2.60 dB   -20.93 dB      4:25 02-J.S. Bach: Concerto For 2 Harpsichords, Strings, And Continuo In C Minor, BWV 1060-Reconstruction For Oboe, Violin, Strings & Continuo-2. Adagio
DR14      -0.31 dB   -18.77 dB      4:31 01-J.S. Bach: Concerto For 2 Harpsichords, Strings, And Continuo In C Minor, BWV 1060-Reconstruction For Oboe, Violin, Strings & Continuo-1. Allegro
DR13      -1.91 dB   -19.09 dB      7:10 05-J.S. Bach: Violin Concerto No.2 In E, BWV 1042-1. Allegro
DR13      -4.76 dB   -21.26 dB      2:40 07-J.S. Bach: Violin Concerto No.2 In E, BWV 1042-3. Allegro assai
--------------------------------------------------------------------------------
Number of tracks:  15
Official DR value: DR13
Samplerate:        44100 Hz
Channels:          2
Bits per sample:   24
Bitrate:           1373 kbps
Codec:             FLAC
================================================================================
Источник (релизер): https://www.prestomusic.com/classical/products/8042531--lisa-batiashvili-bach
Правила, инструкции, FAQ!!!
Торрент  Добавлен [08 июн 2019, 08:57] Скачать торрент Магнет ссылка
Скачать торрент
[ Размер 28.7 КБ / Просмотров 19 ]

Статус
Проверен 
 
Размер  678 МБ
Приватный: Нет (DHT включён)
.torrent скачан  2
Как залить торрент? | Как скачать Torrent? | Ошибка в торренте? Качайте магнет  


     Отправить личное сообщение
   
Страница 1 из 1
Показать сообщения за:  Поле сортировки  
Начать новую тему Ответить на тему


Сейчас этот форум просматривают: нет зарегистрированных пользователей и гости: 0


Вы не можете начинать темы
Вы не можете отвечать на сообщения
Вы не можете редактировать свои сообщения
Вы не можете удалять свои сообщения
Вы не можете добавлять вложения

Перейти:  
Ресурс не предоставляет электронные версии произведений, а занимается лишь коллекционированием и каталогизацией ссылок, присылаемых и публикуемых на форуме нашими читателями. Если вы являетесь правообладателем какого-либо представленного материала и не желаете чтобы ссылка на него находилась в нашем каталоге, свяжитесь с нами и мы незамедлительно удалим её. Файлы для обмена на трекере предоставлены пользователями сайта, и администрация не несёт ответственности за их содержание. Просьба не заливать файлы, защищенные авторскими правами, а также файлы нелегального содержания!
cron