Начать новую тему Ответить на тему
Статистика раздачи
Размер: 1.01 ГБ | Добавлен: 08 июн 2019, 08:56 | Скачали: 1
Сидеров: 0  [0 байт/сек]    Личеров: 0  [0 байт/сек]
Пред. тема | След. тема 

Автор
Сообщение

СообщениеДобавлено: 08 июн 2019, 08:56 

Ответить с цитатой 

Les Arts Florissants, William Christie / Bach - Mass in B Minor, BWV 232
Формат записи/Источник записи: [TR24][OF]
Наличие водяных знаков: Нет
Год издания/переиздания диска: 2018
Жанр: Classical
Издатель (лейбл): Harmonia Mundi
Продолжительность: 01:44:46
Наличие сканов в содержимом раздачи: Буклет PDF
Bach, J S: Mass in B minor, BWV232 1:44:46
Disc1
01. Kyrie eleison 9:53
02. Christe eleison 4:53
03. Kyrie eleison 3:16
04. Gloria in excelsis 1:42
05. Et in terra pax 4:53
06. Laudamus te 4:12
07. Gratias agimus tibi 2:39
08. Dominus Deus 4:58
09. Qui tollis peccata mundi 2:47
10. Qui sedes ad dextram Patris 4:24
11. Quoniam tu solus sanctus 4:35
12. Cum Sancto Spiritu 3:56
Disc2
01. Credo in unum Deum 1:57
02. Patrem omnipotentem 1:49
03. Et in unum Dominum 4:27
04. Et incarnatus est 3:14
05. Crucifixus 2:54
06. Et resurrexit 4:03
07. Et in Spiritum sanctum Dominum 5:39
08. Confiteor 4:22
09. Et expecto 2:17
10. Sanctus 4:19
11. Osanna in excelsis 2:34
12. Benedictus 4:07
13. Osanna in excelsis 2:33
14. Agnus Dei 5:24
15. Dona nobis pacem 2:59

Les Arts Florissants
William Christie
Tim Mead (soloist), André Morsch (soloist), Katherine Watson (soloist), Reinoud Van Mechelen (soloist)
Контейнер: FLAC (*.flac)
Тип рипа: tracks
Разрядность: 24/44,1
Формат: PCM
Количество каналов: 2.0
Код:
foobar2000 1.4.3 / Dynamic Range Meter 1.1.1
log date: 2019-06-02 09:23:25
--------------------------------------------------------------------------------
Analyzed: André Morsch / J.S. Bach : Mass in B Minor (Live in Paris) (1-2)
          Katherine Watson / J.S. Bach : Mass in B Minor (Live in Paris) (3-4)
          Reinoud Van Mechelen / J.S. Bach : Mass in B Minor (Live in Paris) (5-6)
          Tim Mead / J.S. Bach : Mass in B Minor (Live in Paris) (7-8)
          William Christie / J.S. Bach : Mass in B Minor (Live in Paris) (9-27)
--------------------------------------------------------------------------------
DR         Peak         RMS     Duration Track
--------------------------------------------------------------------------------
DR12      -5.78 dB   -20.04 dB      4:35 11-Mass in B minor, BWV 232, Part I, Kyrie, Gloria: Quoniam tu solus sanctus (Live)
DR12      -5.53 dB   -21.62 dB      5:39 07-Mass in B minor, BWV 232, Part II, Symbolum Nicenum: Et in Spiritum sanctum Dominum (Live)
DR12      -3.51 dB   -21.87 dB      4:54 02-Mass in B minor, BWV 232, Part I, Kyrie, Gloria: Christe eleison (Live)
DR15      -4.70 dB   -24.20 dB      4:13 06-Mass in B minor, BWV 232, Part I, Kyrie, Gloria: Laudamus te (Live)
DR15      -5.01 dB   -24.22 dB      4:59 08-Mass in B minor, BWV 232, Part I, Kyrie, Gloria: Dominus Deus (Live)
DR12      -8.50 dB   -23.48 dB      4:08 12-Mass in B minor, BWV 232, Part IV, Osanna, Benedictus, Agnus Dei, Dona nobis pacem: Benedictus (Live)
DR14      -5.63 dB   -22.80 dB      4:25 10-Mass in B minor, BWV 232, Part I, Kyrie, Gloria: Qui sedes ad dextram Patris (Live)
DR12      -6.82 dB   -24.05 dB      5:25 14-Mass in B minor, BWV 232, Part IV, Osanna, Benedictus, Agnus Dei, Dona nobis pacem: Agnus Dei (Live)
DR13      -0.10 dB   -18.56 dB      9:54 01-Mass in B minor, BWV 232, Part I, Kyrie, Gloria: Kyrie eleison (Live)
DR12      -1.55 dB   -17.51 dB      3:17 03-Mass in B minor, BWV 232, Part I, Kyrie, Gloria: Kyrie eleison (Live)
DR12      -0.10 dB   -15.31 dB      1:42 04-Mass in B minor, BWV 232, Part I, Kyrie, Gloria: Gloria in excelsis (Live)
DR12      -0.10 dB   -17.34 dB      4:54 05-Mass in B minor, BWV 232, Part I, Kyrie, Gloria: Et in terra pax (Live)
DR11      -0.57 dB   -15.18 dB      2:39 07-Mass in B minor, BWV 232, Part I, Kyrie, Gloria: Gratias agimus tibi (Live)
DR11      -5.78 dB   -20.45 dB      2:47 09-Mass in B minor, BWV 232, Part I, Kyrie, Gloria: Qui tollis peccata mundi (Live)
DR12      -0.10 dB   -15.26 dB      3:56 12-Mass in B minor, BWV 232, Part I, Kyrie, Gloria: Cum Sancto Spiritu (Live)
DR11      -0.63 dB   -14.51 dB      1:57 01-Mass in B minor, BWV 232, Part II, Symbolum Nicenum: Credo in unum Deum (Live)
DR12       0.00 dB   -14.17 dB      1:50 02-Mass in B minor, BWV 232, Part II, Symbolum Nicenum: Patrem omnipotentem (Live)
DR14      -4.57 dB   -21.75 dB      4:27 03-Mass in B minor, BWV 232, Part II, Symbolum Nicenum: Et in unum Dominum (Live)
DR11      -3.29 dB   -20.01 dB      3:15 04-Mass in B minor, BWV 232, Part II, Symbolum Nicenum: Et incarnatus est (Live)
DR11      -2.09 dB   -17.34 dB      2:54 05-Mass in B minor, BWV 232, Part II, Symbolum Nicenum: Crucifixus (Live)
DR13       0.00 dB   -16.47 dB      4:04 06-Mass in B minor, BWV 232, Part II, Symbolum Nicenum: Et resurrexit (Live)
DR12      -1.50 dB   -17.36 dB      4:23 08-Mass in B minor, BWV 232, Part II, Symbolum Nicenum: Confiteor (Live)
DR11       0.00 dB   -13.85 dB      2:17 09-Mass in B minor, BWV 232, Part II, Symbolum Nicenum: Et expecto (Live)
DR12       0.00 dB   -13.84 dB      4:19 10-Mass in B minor, BWV 232, Part III, Sanctus: Sanctus (Live)
DR12      -1.07 dB   -16.97 dB      2:35 11-Mass in B minor, BWV 232, Part IV, Osanna, Benedictus, Agnus Dei, Dona nobis pacem: Osanna in excelsis (Live)
DR12       0.00 dB   -15.11 dB      2:33 13-Mass in B minor, BWV 232, Part IV, Osanna, Benedictus, Agnus Dei, Dona nobis pacem: Osanna in excelsis (Live)
DR11       0.00 dB   -15.11 dB      2:59 15-Mass in B minor, BWV 232, Part IV, Osanna, Benedictus, Agnus Dei, Dona nobis pacem: Dona nobis pacem (Live)
--------------------------------------------------------------------------------
Number of tracks:  27
Official DR value: DR12
Samplerate:        44100 Hz
Channels:          2
Bits per sample:   24
Bitrate:           1388 kbps
Codec:             FLAC
================================================================================
Источник (релизер): https://www.prestomusic.com/classical/products/8422842--bach-j-s-mass-in-b-minor-bwv232
Правила, инструкции, FAQ!!!
Торрент  Добавлен [08 июн 2019, 08:56] Скачать торрент Магнет ссылка
Скачать торрент
[ Размер 44.11 КБ / Просмотров 7 ]

Статус
Проверен 
 
Размер  1.01 ГБ
Приватный: Нет (DHT включён)
.torrent скачан  1
Как залить торрент? | Как скачать Torrent? | Ошибка в торренте? Качайте магнет  


     Отправить личное сообщение
   
Страница 1 из 1
Показать сообщения за:  Поле сортировки  
Начать новую тему Ответить на тему


Сейчас этот форум просматривают: нет зарегистрированных пользователей и гости: 0


Вы не можете начинать темы
Вы не можете отвечать на сообщения
Вы не можете редактировать свои сообщения
Вы не можете удалять свои сообщения
Вы не можете добавлять вложения

Перейти:  
Ресурс не предоставляет электронные версии произведений, а занимается лишь коллекционированием и каталогизацией ссылок, присылаемых и публикуемых на форуме нашими читателями. Если вы являетесь правообладателем какого-либо представленного материала и не желаете чтобы ссылка на него находилась в нашем каталоге, свяжитесь с нами и мы незамедлительно удалим её. Файлы для обмена на трекере предоставлены пользователями сайта, и администрация не несёт ответственности за их содержание. Просьба не заливать файлы, защищенные авторскими правами, а также файлы нелегального содержания!
cron