Начать новую тему Ответить на тему
Статистика раздачи
Размер: 274.32 МБ | Добавлен: 04 июн 2019, 21:43 | Скачали: 0
Сидеров: 3  [0 байт/сек]    Личеров: 1  [0 байт/сек]
Пред. тема | След. тема 

Автор
Сообщение

СообщениеДобавлено: 04 июн 2019, 21:43 

Ответить с цитатой 

PORTER / Las Batallas
Жанр: Latin, Alternative, Psychedelic, Folk
Носитель: CD
Страна-производитель диска (релиза): Mexico
Год издания: 2019
Издатель (лейбл): ℗ 2019 Universal Music Mexico S.A. de C.V.
Номер по каталогу: 0602577851773
Страна исполнителя (группы): Mexico
Аудиокодек: FLAC (*.flac)
Тип рипа: image+.cue
Продолжительность: 00:46:51
Источник: собственная покупка
Наличие сканов в содержимом раздачи: нет

Треклист:
1. ¿Qué es el Amor?
2. Pájaros
3. Bandera
4. Himno Eterno
5. Chesko
6. Arcade
7. Konnichiuw
8. Hombre Máquina
9. Cuando Lloro
10. Para Ya
Код:
Exact Audio Copy V1.3 from 2. September 2016
EAC extraction logfile from 3. June 2019, 22:10
PORTER / Las Batallas
Used drive  : HL-DT-STDVDRAM GSA-T20L   Adapter: 1  ID: 0
Read mode               : Secure
Utilize accurate stream : Yes
Defeat audio cache      : Yes
Make use of C2 pointers : No
Read offset correction                      : 667
Overread into Lead-In and Lead-Out          : No
Fill up missing offset samples with silence : Yes
Delete leading and trailing silent blocks   : No
Null samples used in CRC calculations       : Yes
Used interface                              : Native Win32 interface for Win NT & 2000
Used output format              : User Defined Encoder
Selected bitrate                : 768 kBit/s
Quality                         : High
Add ID3 tag                     : No
Command line compressor         : C:\Program Files (x86)\Exact Audio Copy\FLAC\FLAC.EXE
Additional command line options : -6 -V -T "ARTIST=%artist%" -T "TITLE=%title%" -T "ALBUM=%albumtitle%" -T "DATE=%year%" -T "TRACKNUMBER=%tracknr%" -T "GENRE=%genre%" -T "COMMENT=%comment%" -T "BAND=%albuminterpret%" -T "ALBUMARTIST=%albuminterpret%" -T "COMPOSER=%composer%" %haslyrics%--tag-from-file=LYRICS="%lyricsfile%"%haslyrics% -T "DISCNUMBER=%cdnumber%" -T "TOTALDISCS=%totalcds%" -T "TOTALTRACKS=%numtracks%" %hascover%--picture="%coverfile%"%hascover% %source% -o %dest%
TOC of the extracted CD
     Track |   Start  |  Length  | Start sector | End sector
    ---------------------------------------------------------
        1  |  0:00.00 |  4:20.24 |         0    |    19523
        2  |  4:20.24 |  5:25.09 |     19524    |    43907
        3  |  9:45.33 |  5:15.47 |     43908    |    67579
        4  | 15:01.05 |  6:19.67 |     67580    |    96071
        5  | 21:20.72 |  4:32.18 |     96072    |   116489
        6  | 25:53.15 |  3:32.14 |    116490    |   132403
        7  | 29:25.29 |  4:19.28 |    132404    |   151856
        8  | 33:44.57 |  3:36.45 |    151857    |   168101
        9  | 37:21.27 |  4:04.62 |    168102    |   186463
       10  | 41:26.14 |  5:24.70 |    186464    |   210833
Range status and errors
Selected range
     Filename C:\Users\alexc\Desktop\PORTER - Las Batallas.wav
     Peak level 100.0 %
     Extraction speed 3.9 X
     Range quality 100.0 %
     Test CRC AB077E59
     Copy CRC AB077E59
     Copy OK
No errors occurred
AccurateRip summary
Track  1  not present in database
Track  2  not present in database
Track  3  not present in database
Track  4  not present in database
Track  5  not present in database
Track  6  not present in database
Track  7  not present in database
Track  8  not present in database
Track  9  not present in database
Track 10  not present in database
None of the tracks are present in the AccurateRip database
End of status report
---- CUETools DB Plugin V2.1.6
[CTDB TOCID: fj1zShZpS0TFEMy9ivlaZj9Tt.E-] disk not present in database
Submit result: fj1zShZpS0TFEMy9ivlaZj9Tt.E- has been uploaded
Код:
REM GENRE Psychedelic
REM DATE 2019
REM DISCID 890AFB0A
REM COMMENT ExactAudioCopy v1.3
CATALOG 0602577851773
PERFORMER "PORTER"
TITLE "Las Batallas"
REM REPLAYGAIN_ALBUM_GAIN -8.80 dB
REM REPLAYGAIN_ALBUM_PEAK 1.000000
FILE "PORTER - Las Batallas.flac" WAVE
  TRACK 01 AUDIO
    TITLE "¿Qué es el Amor?"
    ISRC MXUM71802707
    REM REPLAYGAIN_TRACK_GAIN -8.75 dB
    REM REPLAYGAIN_TRACK_PEAK 0.970337
    INDEX 01 00:00:00
  TRACK 02 AUDIO
    TITLE "Pájaros"
    ISRC MXUM71803053
    REM REPLAYGAIN_TRACK_GAIN -8.85 dB
    REM REPLAYGAIN_TRACK_PEAK 0.987152
    INDEX 01 04:20:24
  TRACK 03 AUDIO
    TITLE "Bandera"
    ISRC MXUM71801382
    REM REPLAYGAIN_TRACK_GAIN -10.39 dB
    REM REPLAYGAIN_TRACK_PEAK 1.000000
    INDEX 01 09:45:33
  TRACK 04 AUDIO
    TITLE "Himno Eterno"
    ISRC MXUM71802829
    REM REPLAYGAIN_TRACK_GAIN -8.87 dB
    REM REPLAYGAIN_TRACK_PEAK 0.998627
    INDEX 01 15:01:05
  TRACK 05 AUDIO
    TITLE "Chesko"
    ISRC MXUM71900368
    REM REPLAYGAIN_TRACK_GAIN -9.48 dB
    REM REPLAYGAIN_TRACK_PEAK 0.972809
    INDEX 01 21:20:72
  TRACK 06 AUDIO
    TITLE "Arcade"
    ISRC MXUM71900369
    REM REPLAYGAIN_TRACK_GAIN -8.57 dB
    REM REPLAYGAIN_TRACK_PEAK 0.973724
    INDEX 01 25:53:15
  TRACK 07 AUDIO
    TITLE "Konnichiwa"
    ISRC MXUM71900370
    REM REPLAYGAIN_TRACK_GAIN -8.92 dB
    REM REPLAYGAIN_TRACK_PEAK 0.973450
    INDEX 01 29:25:29
  TRACK 08 AUDIO
    TITLE "Hombre Máquina"
    ISRC MXUM71900346
    REM REPLAYGAIN_TRACK_GAIN -7.85 dB
    REM REPLAYGAIN_TRACK_PEAK 0.968292
    INDEX 01 33:44:57
  TRACK 09 AUDIO
    TITLE "Cuando Lloro"
    ISRC MXUM71900864
    REM REPLAYGAIN_TRACK_GAIN -6.12 dB
    REM REPLAYGAIN_TRACK_PEAK 0.974609
    INDEX 01 37:21:27
  TRACK 10 AUDIO
    TITLE "Para Ya"
    ISRC MXUM71900865
    REM REPLAYGAIN_TRACK_GAIN -8.06 dB
    REM REPLAYGAIN_TRACK_PEAK 0.978119
    INDEX 01 41:26:14
Код:
-----------------------
DON'T MODIFY THIS FILE
-----------------------
PERFORMER: auCDtect Task Manager, ver. 1.6.0 RC1 build 1.6.0.1
Copyright (c) 2008-2010 y-soft. All rights reserved
[url=http://y-soft.org]http://y-soft.org[/url]
ANALYZER: auCDtect: CD records authenticity detector, version 0.8.2
Copyright (c) 2004 Oleg Berngardt. All rights reserved.
Copyright (c) 2004 Alexander Djourik. All rights reserved.
FILE: PORTER - Las Batallas.flac
  Size: 287635931 Hash: D07C88E0E3994F73F9B6E48DE70064A0 Accuracy: -m0
  Conclusion: CDDA 100%
  Signature: 19AA3CA00CC9EF3E884DB4DC899C8E019EC49E89
Правила, инструкции, FAQ!!!
Торрент  Добавлен [04 июн 2019, 21:43] Скачать торрент Магнет ссылка
Скачать торрент
[ Размер 11.4 КБ / Просмотров 4 ]

Статус
Проверен 
 
Размер  274.32 МБ
Приватный: Нет (DHT включён)
.torrent скачан  0
Как залить торрент? | Как скачать Torrent? | Ошибка в торренте? Качайте магнет  


     Отправить личное сообщение
   
Страница 1 из 1
Показать сообщения за:  Поле сортировки  
Начать новую тему Ответить на тему


Сейчас этот форум просматривают: нет зарегистрированных пользователей и гости: 2


Вы не можете начинать темы
Вы не можете отвечать на сообщения
Вы не можете редактировать свои сообщения
Вы не можете удалять свои сообщения
Вы не можете добавлять вложения

Перейти:  
Ресурс не предоставляет электронные версии произведений, а занимается лишь коллекционированием и каталогизацией ссылок, присылаемых и публикуемых на форуме нашими читателями. Если вы являетесь правообладателем какого-либо представленного материала и не желаете чтобы ссылка на него находилась в нашем каталоге, свяжитесь с нами и мы незамедлительно удалим её. Файлы для обмена на трекере предоставлены пользователями сайта, и администрация не несёт ответственности за их содержание. Просьба не заливать файлы, защищенные авторскими правами, а также файлы нелегального содержания!